Brian Eno & Jan Peter Schwalm - Drawn From Life (2001) {Opal Limited}

Download Now


Brian Eno & Jan Peter Schwalm - Drawn From Life (2001) {Opal Limited}
Brian Eno & Jan Peter Schwalm - Drawn From Life (2001) {Opal Limited}
EAC rip (secure mode) | FLAC (tracks)+CUE+LOG -> 380 Mb | MP3 @320 -> 148 Mb
Full Artwork @ 600 dpi (jpg) -> 12 Mb | 5% repair rar
© 2001 Opal / Schwalm / Virgin | 7243 8 10148 20
Electronic / Avant-Garde / Classical / Ambient / Experimental

"Picking up where such seminal Eno recordings as Music for Airports and Another Green World left off, the inveterate innovator-producer's first recording in four years is a surreal tableau of loping beats and eerie sounds enveloped in dark yet serene atmospherics. With German percussionist Schwalm contributing softly swinging drumming, Eno is free to dabble in sounds ranging from Middle Eastern string quartets to crying machines and Vocoders to happy, babbling babies. One of Life's many highlights is Laurie Anderson's cameo on "Like Pictures Part #2," as she enunciates her words above the song's spooky, soothing ambiance. "Bloom" contrasts happy baby chatter against distorted heartbeats and sinister samples; "Night Traffic" paints an empty urban center at dusk with shifting shapes and '70s jazz percussion and piano. Throughout Drawn from Life, Eno and Schwalm cast a spell of spectral dislocation and foreboding. It's like what dying prostrate in the snow must be like--slow, sleepy, beautiful, and chilling."

Brian Eno & Jan Peter Schwalm - Drawn From Life (2001) {Opal Limited}


Personnel:
Brian Eno
J. Peter Schwalm
Leo Abrahams
Laurie Anderson
Holger Czukay
Heiko Himmighoffen
Lynn Gerlach
Irial and Darla Eno


tracklist:
01 - From this Moment
02 - Persis
03 - Like Pictures, part 1
04 - Like Pictures, part 2
05 - Night Traffic
06 - Rising Dust
07 - Intenser
08 - More Dust
09 - Bloom
10 - Two Voices
11 - Bloom (instr)

Exact Audio Copy V1.0 beta 3 from 29. August 2011

EAC extraction logfile from 27. September 2013, 21:39

Brian Eno & J. Peter Schwalm / Drawn from Life

Used drive : ASUS DRW-24B1ST Adapter: 1 ID: 0

Read mode : Secure
Utilize accurate stream : Yes
Defeat audio cache : Yes
Make use of C2 pointers : No

Read offset correction

: 6
Overread into Lead-In and Lead-Out : No
Fill up missing offset samples with silence : Yes
Delete leading and trailing silent blocks : No
Null samples used in CRC calculations : Yes
Used interface
: Native Win32 interface for Win NT & 2000
Gap handling
: Appended to previous track

Used output format : User Defined Encoder
Selected bitrate : 768 kBit/s
Quality : High
Add ID3 tag : No
Command line compressor : C:\Program Files (x86)\Exact Audio Copy\FLAC\FLAC.EXE
Additional command line options : -8 -V -T "ARTIST=%artist%" -T "TITLE=%title%" -T "ALBUM=%albumtitle%" -T "DATE=%year%" -T "TRACKNUMBER=%tracknr%" -T "TOTALTRACKS=%numtracks%" -T "GENRE=%genre%" -T "ALBUMARTIST=%albumartist%" -T "ALBUM ARTIST=%albumartist%" -T "COMMENT=EAC Secure Mode, Test & Copy, AccurateRip, FLAC -8" %source%

TOC of the extracted CD Track | Start | Length | Start sector | End sector
--1 | 0:00.00 | 1:22.30 | 0 | 6179 2 | 1:22.30 | 7:41.73 | 6180 | 40827 3 | 9:04.28 | 1:20.13 | 40828 | 46840 4 | 10:24.41 | 5:48.06 | 46841 | 72946 5 | 16:12.47 | 8:19.67 | 72947 | 110438 6 | 24:32.39 | 7:44.53 | 110439 | 145291 7 | 32:17.17 | 5:23.12 | 145292 | 169528 8 | 37:40.29 | 6:03.32 | 169529 | 196785 9 | 43:43.61 | 9:40.54 | 196786 | 240339
10 | 53:24.40 | 7:38.24 | 240340 | 274713
11 | 61:02.64 | 7:09.18 | 274714 | 306906

Track 1 Filename M:\Music\01 - From this Moment.wav Pre-gap length 0:00:02.00 Peak level 35.1 %
Extraction speed 2.7 X
Track quality 100.0 %
Test CRC 9D99AD87
Copy CRC 9D99AD87
Accurately ripped (confidence 2) [CE9B7839] (AR v2)
Copy OK

Track 2 Filename M:\Music\02 - Persis.wav Peak level 100.0 %
Extraction speed 4.2 X
Track quality 100.0 %
Test CRC 024A90BA
Copy CRC 024A90BA
Accurately ripped (confidence 2) [2C8A9C06] (AR v2)
Copy OK

Track 3 Filename M:\Music\03 - Like Pictures, part 1.wav Peak level 19.9 %
Extraction speed 3.3 X
Track quality 100.0 %
Test CRC FECFE7DE
Copy CRC FECFE7DE
Accurately ripped (confidence 2) [3EA0F08F] (AR v2)
Copy OK

Track 4 Filename M:\Music\04 - Like Pictures, part 2.wav Peak level 100.0 %
Extraction speed 4.7 X
Track quality 100.0 %
Test CRC F16183A3
Copy CRC F16183A3
Accurately ripped (confidence 2) [ED41115F] (AR v2)
Copy OK

Track 5 Filename M:\Music\05 - Night Traffic.wav Peak level 99.9 %
Extraction speed 5.4 X
Track quality 100.0 %
Test CRC 4ED5800B
Copy CRC 4ED5800B
Accurately ripped (confidence 2) [F91D9FE5] (AR v2)
Copy OK

Track 6 Filename M:\Music\06 - Rising Dust.wav Peak level 96.2 %
Extraction speed 5.9 X
Track quality 100.0 %
Test CRC 28214DDD
Copy CRC 28214DDD
Accurately ripped (confidence 2) [6FDB2E3D] (AR v2)
Copy OK

Track 7 Filename M:\Music\07 - Intenser.wav Peak level 100.0 %
Extraction speed 6.1 X
Track quality 100.0 %
Test CRC 87CCA8FA
Copy CRC 87CCA8FA
Accurately ripped (confidence 2) [C6F36F6F] (AR v2)
Copy OK

Track 8 Filename M:\Music\08 - More Dust.wav Pre-gap length 0:00:00.69 Peak level 99.6 %
Extraction speed 6.5 X
Track quality 100.0 %
Test CRC 4DE81A58
Copy CRC 4DE81A58
Accurately ripped (confidence 2) [43A08455] (AR v2)
Copy OK

Track 9 Filename M:\Music\09 - Bloom.wav Pre-gap length 0:00:01.32 Peak level 97.2 %
Extraction speed 7.1 X
Track quality 100.0 %
Test CRC A9B29847
Copy CRC A9B29847
Accurately ripped (confidence 2) [95B23B04] (AR v2)
Copy OK

Track 10 Filename M:\Music\10 - Two Voices.wav Peak level 71.3 %
Extraction speed 7.5 X
Track quality 100.0 %
Test CRC 1471EF21
Copy CRC 1471EF21
Accurately ripped (confidence 2) [CEDF95F2] (AR v2)
Copy OK

Track 11 Filename M:\Music\11 - Bloom (instr).wav Peak level 97.8 %
Extraction speed 7.7 X
Track quality 100.0 %
Test CRC 551D9924
Copy CRC 551D9924
Accurately ripped (confidence 2) [AEAFD300] (AR v2)
Copy OK

All tracks accurately ripped

No errors occurred

End of status report

- CUETools DB Plugin V2.1.3

[CTDB TOCID: 4J1dPBVIQUZThvtAfrx6QoxxN1k-] disk not present in database, Submit result: 4J1dPBVIQUZThvtAfrx6QoxxN1k- has been uploaded

==== Log checksum FED8BFF7E31DA3CD7120A7A30ACEAC9324A5A4CA7DDD42843CFC25D37CA96E55 ====

Brian Eno & Jan Peter Schwalm - Drawn From Life (2001) {Opal Limited}

Brian Eno & Jan Peter Schwalm - Drawn From Life (2001) {Opal Limited}

DOWNLOAD LINKS
Buy Premium From My Links To Get Resumable Support & Max Speed & To Support Me


Links are Interchangeable - No Password - Single Extraction
Direct Download

Tags: Schwalm, Limited

Brian Eno & Jan Peter Schwalm - Drawn From Life (2001) {Opal Limited} Download via Hotfile Rapidshare Fileserve Megaupload & FileSonic, Brian Eno & Jan Peter Schwalm - Drawn From Life (2001) {Opal Limited} free torrent downloads included crack, serial, keygen.Brian Eno & Jan Peter Schwalm - Drawn From Life (2001) {Opal Limited} Fast Download via Rapidshare Hotfile Fileserve Filesonic Megaupload, Brian Eno & Jan Peter Schwalm - Drawn From Life (2001) {Opal Limited} Torrents and Emule Download or anything related.
Leave a Comment
Your Name:
E-Mail:
Add Comments:

Enter Code: