Louis Sclavis - Lost On The Way (2009) {ECM 2098}

Download Now

Louis Sclavis - Lost On The Way (2009) {ECM 2098}

Louis Sclavis - Lost On The Way (2009) {ECM 2098}
EAC 1.0b3 | FLAC tracks level 8 | Cue+Log+M3U | Full Scans 300dpi | 335MB + 5% Recovery
Genre: Post-Bop, Avant-Garde Jazz

"The purely magical, tonal, dancing alto or bass clarinet and soprano saxophone of Louis Sclavis are heard fully on this recording with his quintet, where he explores a variety of ethnically inspired motifs guaranteed to delight one and all. Where improvisation has always been his strong suit, here it is relegated to solos, as his written music takes center stage. Fellow front-liner Matthieu Metzger plays alto and soprano sax -- together he and Sclavis create a whirling dervish cone of sound that reflects a definite European stance removed from American jazz."

"The purely magical, tonal, dancing alto or bass clarinet and soprano saxophone of Louis Sclavis are heard fully on this recording with his quintet, where he explores a variety of ethnically inspired motifs guaranteed to delight one and all. Where improvisation has always been his strong suit, here it is relegated to solos, as his written music takes center stage. Fellow front-liner Matthieu Metzger plays alto and soprano sax -- together he and Sclavis create a whirling dervish cone of sound that reflects a definite European stance removed from American jazz."

Track List
01. De Charybde En Scylla (5:34)
02. La Premiere Ile (1:24)
03. Lost On The Way (6:42)
04. Bain D'Or (6:03)
05. Le Sommeil Des Sirenes (7:23)
06. L'Heure Des Songes (4:19)
07. Aboard Ulysses's Boat (5:52)
08. Les Doutes Du Cyclope (6:51)
09. Un Vent Noir (3:39)
10. The Last Island (1:21)
11. Des Bruits A Tisser (5:18)
12. L'Absence (2:24)

musicians
Louis Sclavis - clarinets, soprano saxophone
Matthias Metzger - soprano and alto saxophones
Maxime Delpierre - guitar
Olivier Lete - bass
Francois Merville - drums

Produced by Manfred Eicher

Exact Audio Copy V1.0 beta 3 from 29. August 2011

EAC extraction logfile from 29. June 2015, 19:49

Louis Sclavis / Lost on the way

Used drive : HL-DT-STDVD+-RW GU70N Adapter: 0 ID: 0

Read mode : Secure
Utilize accurate stream : Yes
Defeat audio cache : Yes
Make use of C2 pointers : No

Read offset correction

: 48
Overread into Lead-In and Lead-Out : No
Fill up missing offset samples with silence : Yes
Delete leading and trailing silent blocks : No
Null samples used in CRC calculations : Yes
Used interface
: Native Win32 interface for Win NT & 2000
Gap handling
: Appended to previous track

Used output format : User Defined Encoder
Selected bitrate : 1024 kBit/s
Quality : High
Add ID3 tag : No
Command line compressor : C:\Program Files (x86)\Exact Audio Copy\Flac\flac.exe
Additional command line options : -8 -V -T "ARTIST=%artist%" -T "TITLE=%title%" -T "ALBUM=%albumtitle%" -T "DATE=%year%" -T "TRACKNUMBER=%tracknr%" -T "GENRE=%genre%" -T "PERFORMER=%albuminterpret%" -T "COMPOSER=%composer%" %haslyrics%--tag-from-file=LYRICS="%lyricsfile%"%haslyrics% -T "ALBUMARTIST=%albumartist%" -T "DISCNUMBER=%cdnumber%" -T "TOTALDISCS=%totalcds%" -T "TOTALTRACKS=%numtracks%" -T "COMMENT=%comment%" %source% -o %dest%

TOC of the extracted CD Track | Start | Length | Start sector | End sector
--1 | 0:00.00 | 5:35.05 | 0 | 25129 2 | 5:35.05 | 1:24.48 | 25130 | 31477 3 | 6:59.53 | 6:42.44 | 31478 | 61671 4 | 13:42.22 | 6:03.56 | 61672 | 88952 5 | 19:46.03 | 7:23.39 | 88953 | 122216 6 | 27:09.42 | 4:19.26 | 122217 | 141667 7 | 31:28.68 | 5:52.74 | 141668 | 168141 8 | 37:21.67 | 6:51.37 | 168142 | 199003 9 | 44:13.29 | 3:40.10 | 199004 | 215513
10 | 47:53.39 | 1:20.36 | 215514 | 221549
11 | 49:14.00 | 5:18.59 | 221550 | 245458
12 | 54:32.59 | 2:24.21 | 245459 | 256279

Track 1 Filename C:\EAC Rips\Louis Sclavis - Lost on the Way - (2009) [FLAC] {ECM 2098}\01. De Charybde en Scylla.wav Pre-gap length 0:00:02.00 Peak level 97.1 %
Extraction speed 2.9 X
Track quality 100.0 %
Test CRC 55DCB933
Copy CRC 55DCB933
Accurately ripped (confidence 13) [C0301C58] (AR v2)
Copy OK

Track 2 Filename C:\EAC Rips\Louis Sclavis - Lost on the Way - (2009) [FLAC] {ECM 2098}\02. La Première île.wav Pre-gap length 0:00:05.52 Peak level 82.6 %
Extraction speed 1.6 X
Track quality 99.8 %
Test CRC 1DF77288
Copy CRC 1DF77288
Accurately ripped (confidence 14) [4D6A3C7E] (AR v2)
Copy OK

Track 3 Filename C:\EAC Rips\Louis Sclavis - Lost on the Way - (2009) [FLAC] {ECM 2098}\03. Lost on the Way.wav Peak level 98.9 %
Extraction speed 3.2 X
Track quality 100.0 %
Test CRC 329A2D72
Copy CRC 329A2D72
Accurately ripped (confidence 14) [713367F7] (AR v2)
Copy OK

Track 4 Filename C:\EAC Rips\Louis Sclavis - Lost on the Way - (2009) [FLAC] {ECM 2098}\04. Bain d'or.wav Pre-gap length 0:00:05.62 Peak level 96.8 %
Extraction speed 1.6 X
Track quality 100.0 %
Test CRC 478AD71E
Copy CRC 478AD71E
Accurately ripped (confidence 13) [67F4491D] (AR v2)
Copy OK

Track 5 Filename C:\EAC Rips\Louis Sclavis - Lost on the Way - (2009) [FLAC] {ECM 2098}\05. Le Sommeil de Sirènes.wav Pre-gap length 0:00:04.71 Peak level 97.9 %
Extraction speed 1.7 X
Track quality 99.9 %
Test CRC 20E11245
Copy CRC 20E11245
Accurately ripped (confidence 14) 22BCA06 (AR v2)
Copy OK

Track 6 Filename C:\EAC Rips\Louis Sclavis - Lost on the Way - (2009) [FLAC] {ECM 2098}\06. L'heure des Songes.wav Pre-gap length 0:00:04.52 Peak level 95.9 %
Extraction speed 1.8 X
Track quality 100.0 %
Test CRC D29D5E38
Copy CRC D29D5E38
Accurately ripped (confidence 14) [904C887B] (AR v2)
Copy OK

Track 7 Filename C:\EAC Rips\Louis Sclavis - Lost on the Way - (2009) [FLAC] {ECM 2098}\07. Aboard Ulysses's boat.wav Pre-gap length 0:00:05.50 Peak level 97.4 %
Extraction speed 2.0 X
Track quality 100.0 %
Test CRC 85696BF0
Copy CRC 85696BF0
Accurately ripped (confidence 14) 5C754BF (AR v2)
Copy OK

Track 8 Filename C:\EAC Rips\Louis Sclavis - Lost on the Way - (2009) [FLAC] {ECM 2098}\08. Les Doutes du Cyclope.wav Pre-gap length 0:00:06.11 Peak level 98.2 %
Extraction speed 2.2 X
Track quality 100.0 %
Test CRC DC1F5EF7
Copy CRC DC1F5EF7
Accurately ripped (confidence 14) [C2CF0E3F] (AR v2)
Copy OK

Track 9 Filename C:\EAC Rips\Louis Sclavis - Lost on the Way - (2009) [FLAC] {ECM 2098}\09. Un Vent Noir.wav Pre-gap length 0:00:04.03 Peak level 96.8 %
Extraction speed 2.1 X
Track quality 100.0 %
Test CRC 28CE935A
Copy CRC 28CE935A
Accurately ripped (confidence 14) 82AB7C6 (AR v2)
Copy OK

Track 10 Filename C:\EAC Rips\Louis Sclavis - Lost on the Way - (2009) [FLAC] {ECM 2098}\10. The Last Island.wav Pre-gap length 0:00:02.70 Peak level 96.1 %
Extraction speed 1.7 X
Track quality 100.0 %
Test CRC A53B142E
Copy CRC A53B142E
Accurately ripped (confidence 14) [82507AAC] (AR v2)
Copy OK

Track 11 Filename C:\EAC Rips\Louis Sclavis - Lost on the Way - (2009) [FLAC] {ECM 2098}\11. Des Bruits à Tisser.wav Peak level 97.4 %
Extraction speed 2.3 X
Track quality 100.0 %
Test CRC 7C0DD637
Copy CRC 7C0DD637
Accurately ripped (confidence 14) [DF902D67] (AR v2)
Copy OK

Track 12 Filename C:\EAC Rips\Louis Sclavis - Lost on the Way - (2009) [FLAC] {ECM 2098}\12. L'absence.wav Peak level 79.6 %
Extraction speed 2.1 X
Track quality 100.0 %
Test CRC F2885EC4
Copy CRC F2885EC4
Accurately ripped (confidence 14) [1A240666] (AR v2)
Copy OK

All tracks accurately ripped

No errors occurred

End of status report

- CUETools DB Plugin V2.1.3

[CTDB TOCID: pla0wHFM6P3QHF5sqiFMY86Tk38-] found, Submit result: pla0wHFM6P3QHF5sqiFMY86Tk38- has been confirmed
438544e (14/14) Accurately ripped

==== Log checksum 9936EF2DC8F4645B41ABE82C2CE6CB4CBE445CB598A7F9CF38FBCD3908B0F247 ====

Analyzed: Louis Sclavis / Lost On The Way

DR Peak RMS Duration Track

DR9 -0.25 dB -11.10 dB 5:35 01-De Charybde en Scylla
DR11 -1.66 dB -17.39 dB 1:25 02-La Première île
DR9 -0.09 dB -10.43 dB 6:43 03-Lost on the Way
DR10 -0.28 dB -12.37 dB 6:04 04-Bain d'or
DR9 -0.18 dB -11.87 dB 7:24 05-Le Sommeil de Sirènes
DR11 -0.36 dB -14.88 dB 4:19 06-L'heure des Songes
DR9 -0.23 dB -11.71 dB 5:53 07-Aboard Ulysses's boat
DR8 -0.15 dB -10.66 dB 6:51 08-Les Doutes du Cyclope
DR8 -0.28 dB -11.12 dB 3:40 09-Un Vent Noir
DR12 -0.34 dB -17.59 dB 1:20 10-The Last Island
DR10 -0.23 dB -11.93 dB 5:19 11-Des Bruits à Tisser
DR10 -1.98 dB -14.88 dB 2:24 12-L'absence

Number of tracks: 12
Official DR value: DR10

Samplerate: 44100 Hz
Channels: 2
Bits per sample: 16
Bitrate: 619 kbps
Codec: FLAC

Louis Sclavis - Lost On The Way (2009) {ECM 2098}

Louis Sclavis - Lost On The Way (2009) {ECM 2098}

Louis Sclavis - Lost On The Way (2009) {ECM 2098}

Rip by dtn


DOWNLOAD LINKS:
Buy Premium To Support Me & Get Resumable Support & Max Speed


Links are Interchangeable - No Password - Single Extraction
Direct Download

Tags: Sclavis

Louis Sclavis - Lost On The Way (2009) {ECM 2098} Download via Hotfile Rapidshare Fileserve Megaupload & FileSonic, Louis Sclavis - Lost On The Way (2009) {ECM 2098} free torrent downloads included crack, serial, keygen.Louis Sclavis - Lost On The Way (2009) {ECM 2098} Fast Download via Rapidshare Hotfile Fileserve Filesonic Megaupload, Louis Sclavis - Lost On The Way (2009) {ECM 2098} Torrents and Emule Download or anything related.
Leave a Comment
Your Name:
E-Mail:
Add Comments:

Enter Code: