Jan Mulder & London Symphony Orchestra - Christmas (2014)

Download Now

Jan Mulder & London Symphony Orchestra - Christmas (2014)

Jan Mulder & London Symphony Orchestra - Christmas (2014)
EAC | FLAC | Image (Cue&Log) ~ 293 Mb (incl 5%) | Mp3 (CBR320) ~ 162 Mb (incl 5%) | Scans included
Genre: Classical Crossover, Easy Listening, Holiday | Label: Miller Music | # 628586714489 | Time: 00:54:34

"Composer and pianist Jan Mulder recorded a new album titled: Christmas, featuring Andrea Bocelli and the London Symphony Orchestra. Jan Mulder composed and arranged the music for the new CD which contains beautiful Christmas Carols such as: O Holy Night, O Come All Ye Faithful, Silent Night, and Angels We Have Heard On High. In addition to that, he composed new music for Christmas: The Birthday Of A King, Prince of Peace, and Mary's Lullaby. Guest artist Andrea Bocelli sings a beautiful song called: A choir of a thousand angels. Jan Mulder conducted the London Symphony Orchestra at Lyndhurst Hall in London and played the solo piano part simultaneously. Sound engineer Geoff Foster is a three time GRAMMY Award winner. Mulder's Christmas album sounds warm, very emotional and pleasant."



Tracklist:

01. O Holy Night (03:09)
02. O Come All Ye Faithful (03:23)
03. Silent Night, Holy Night (03:06)
04. Angels We Have Heard On High (05:19)
05. A Choir of a Thousand Angels [Feat. Andrea Bocelli] (03:55)
06. Prince of Peace (03:23)
07. Hark, The Herald Angels Sing (03:49)
08. See Amid The Winter's Snow (03:37)
09. The Son Of Mary (03:51)
10. The Birthday of a King (03:40)
11. He Is Born (1) (00:55)
12. He Is Born (2) (01:23)
13. He Is Born (3) (00:59)
14. He Is Born (4) (01:39)
15. He Is Born (5) (01:37)
16. Away in a Manger (03:16)
17. Mary's Lullaby (02:52)
18. Sheep May Safely Graze (04:33)


Exact Audio Copy V1.0 beta 4 from 7. December 2014

EAC extraction logfile from 3. November 2015, 10:52

Jan Mulder & London Symphony Orchestra / Christmas

Used drive : TSSTcorpCDDVDW TS-L633C Adapter: 1 ID: 0

Read mode : Secure
Utilize accurate stream : Yes
Defeat audio cache : Yes
Make use of C2 pointers : No

Read offset correction

: 6
Overread into Lead-In and Lead-Out : No
Fill up missing offset samples with silence : Yes
Delete leading and trailing silent blocks : No
Null samples used in CRC calculations : Yes
Used interface
: Native Win32 interface for Win NT & 2000

Used output format : Internal WAV Routines
Sample format : 44.100 Hz; 16 Bit; Stereo

TOC of the extracted CD Track | Start | Length | Start sector | End sector
--1 | 0:00.00 | 3:09.67 | 0 | 14241 2 | 3:09.67 | 3:23.41 | 14242 | 29507 3 | 6:33.33 | 3:06.58 | 29508 | 43515 4 | 9:40.16 | 5:19.02 | 43516 | 67442 5 | 14:59.18 | 3:55.27 | 67443 | 85094 6 | 18:54.45 | 3:23.11 | 85095 | 100330 7 | 22:17.56 | 3:49.09 | 100331 | 117514 8 | 26:06.65 | 3:37.64 | 117515 | 133853 9 | 29:44.54 | 3:51.04 | 133854 | 151182
10 | 33:35.58 | 3:40.57 | 151183 | 167739
11 | 37:16.40 | 0:55.12 | 167740 | 171876
12 | 38:11.52 | 1:23.41 | 171877 | 178142
13 | 39:35.18 | 0:59.02 | 178143 | 182569
14 | 40:34.20 | 1:39.52 | 182570 | 190046
15 | 42:13.72 | 1:37.63 | 190047 | 197384
16 | 43:51.60 | 3:16.19 | 197385 | 212103
17 | 47:08.04 | 2:52.66 | 212104 | 225069
18 | 50:00.70 | 4:33.09 | 225070 | 245553

Range status and errors

Selected range Filename H:\CD Releases\Jan Mulder (FLAC) y italia57\2014. Christmas\Jan Mulder & London Symphony Orchestra - Christmas (628586714489).wav Peak level 96.5 %
Extraction speed 3.8 X
Range quality 100.0 %
Test CRC A2D0AE80
Copy CRC A2D0AE80
Copy OK

No errors occurred


AccurateRip summary

Track 1 accurately ripped (confidence 2) [C7E516FC] (AR v2)
Track 2 accurately ripped (confidence 2) [6897A3AB] (AR v2)
Track 3 accurately ripped (confidence 2) [81B37153] (AR v2)
Track 4 accurately ripped (confidence 2) [476CCA61] (AR v2)
Track 5 accurately ripped (confidence 2) E3BCD15 (AR v2)
Track 6 accurately ripped (confidence 2) [3B9A1328] (AR v2)
Track 7 accurately ripped (confidence 2) [76EC6752] (AR v2)
Track 8 accurately ripped (confidence 2) [4B7FA77C] (AR v2)
Track 9 accurately ripped (confidence 2) [3969500E] (AR v2)
Track 10 accurately ripped (confidence 2) [6C7B4CBC] (AR v2)
Track 11 accurately ripped (confidence 2) [38B130A5] (AR v2)
Track 12 accurately ripped (confidence 2) [500E38D4] (AR v2)
Track 13 accurately ripped (confidence 2) [24A1B678] (AR v2)
Track 14 accurately ripped (confidence 2) [FDA2AE65] (AR v2)
Track 15 accurately ripped (confidence 2) [47730658] (AR v2)
Track 16 accurately ripped (confidence 2) [FD648CFE] (AR v2)
Track 17 accurately ripped (confidence 2) [71F7C953] (AR v2)
Track 18 accurately ripped (confidence 2) [9B5F8240] (AR v2)

All tracks accurately ripped

End of status report

- CUETools DB Plugin V2.1.4

[CTDB TOCID: 5f1n1sR_2OMz6laLK8_tW4cownk-] found
Submit result: 5f1n1sR_2OMz6laLK8_tW4cownk- has been confirmed
Track | CTDB Status
1 | (3/3) Accurately ripped
2 | (3/3) Accurately ripped
3 | (3/3) Accurately ripped
4 | (3/3) Accurately ripped
5 | (3/3) Accurately ripped
6 | (3/3) Accurately ripped
7 | (3/3) Accurately ripped
8 | (3/3) Accurately ripped
9 | (3/3) Accurately ripped
10 | (3/3) Accurately ripped
11 | (3/3) Accurately ripped
12 | (3/3) Accurately ripped
13 | (3/3) Accurately ripped
14 | (3/3) Accurately ripped
15 | (3/3) Accurately ripped
16 | (3/3) Accurately ripped
17 | (3/3) Accurately ripped
18 | (3/3) Accurately ripped

==== Log checksum 24FAA8A5A221FC635E971A4812263D4946F86AD006E0CB9EA911BF81297F84A7 ====

foobar2000 1.2 / Dynamic Range Meter 1.1.1
log date: 2015-11-03 21:04:07

Analyzed: Jan Mulder & London Symphony Orchestra / Christmas

DR Peak RMS Duration Track

DR11 -0.41 dB -15.89 dB 3:10 01-O Holy Night
DR11 -2.03 dB -17.91 dB 3:24 02-O Come All Ye Faithful
DR12 -0.82 dB -17.56 dB 3:07 03-Silent Night, Holy Night
DR12 -1.08 dB -18.59 dB 5:19 04-Angels We Have Heard On High
DR14 -0.31 dB -19.16 dB 3:55 05-A Choir of a Thousand Angels [Feat. Andrea Bocelli]
DR11 -1.73 dB -17.31 dB 3:23 06-Prince of Peace
DR11 -0.56 dB -17.23 dB 3:49 07-Hark, The Herald Angels Sing
DR11 -1.01 dB -16.66 dB 3:38 08-See Amid The Winter's Snow
DR11 -0.79 dB -16.98 dB 3:51 09-The Son Of Mary
DR12 -0.53 dB -18.56 dB 3:41 10-The Birthday of a King
DR10 -11.36 dB -25.48 dB 0:55 11-He Is Born (1)
DR11 -6.74 dB -23.51 dB 1:24 12-He Is Born (2)
DR11 -2.06 dB -17.19 dB 0:59 13-He Is Born (3)
DR10 -6.09 dB -21.41 dB 1:40 14-He Is Born (4)
DR11 -1.35 dB -15.14 dB 1:38 15-He Is Born (5)
DR11 -2.46 dB -18.95 dB 3:16 16-Away in a Manger
DR10 -6.14 dB -21.58 dB 2:53 17-Mary's Lullaby
DR12 -1.87 dB -18.91 dB 4:33 18-Sheep May Safely Graze

Number of tracks: 18
Official DR value: DR11

Samplerate: 44100 Hz
Channels: 2
Bits per sample: 16
Bitrate: 640 kbps
Codec: FLAC

Jan Mulder & London Symphony Orchestra - Christmas (2014)

Jan Mulder & London Symphony Orchestra - Christmas (2014)

All thanks to original releaser - italia57
Password: designol

DOWNLOAD LINKS
Buy Premium From My Links To Get Resumable Support & Max Speed & To Support Me


Links are Interchangeable - No Password - Single Extraction
Direct Download

Tags: Mulder, London, Symphony, Orchestra, Christmas

Jan Mulder & London Symphony Orchestra - Christmas (2014) Download via Hotfile Rapidshare Fileserve Megaupload & FileSonic, Jan Mulder & London Symphony Orchestra - Christmas (2014) free torrent downloads included crack, serial, keygen.Jan Mulder & London Symphony Orchestra - Christmas (2014) Fast Download via Rapidshare Hotfile Fileserve Filesonic Megaupload, Jan Mulder & London Symphony Orchestra - Christmas (2014) Torrents and Emule Download or anything related.
Leave a Comment
Your Name:
E-Mail:
Add Comments:

Enter Code: