Pierrot La Lune Quartet - Out Of The Wood (2014) {PLLQ14}

Download Now

Pierrot La Lune Quartet - Out Of The Wood (2014) {PLLQ14}

Pierrot La Lune Quartet - Out Of The Wood (2014) {PLLQ14}
EAC 1.0b3 | FLAC tracks level 8 | Cue+Log+M3U | Full Scans 400dpi | 277MB + 5% Recovery
Genre: Jazz, French Jazz

"Le pianiste et compositeur nantais Pierre-Emmanuel Hias, muni de son maillet et de sa gouge, sculpte le son comme une pièce de bois précieux. Sur ce premier disque du Pierrot La Lune Quartet, il fait appel au guitariste Daniel Givone pour élargir sa palette de timbres et pratiquer son art d'assembler et mélanger ceux-ci."

Track List
01. Le coeur sur terre 3:48
02. Memoire sensitive 4:03
03. Vu du ciel 4:36
04. La Punition 3:18
05. 39 Jours 5:56
06. Bieneillant 3:25
07. Electro tentation 3:21
08. Aphelie 4:53
09. Out Of The Wood 5:22
10. Harmonia 3:37
11. Espagna 3:45

musicians
Pierre-Emmanuel Hias - piano, composition
Anne-Sophie Pasquier - accordion
Stephane Rousseau - basse, double-bass
Pierre Le Normand - drums
Daniel Givone - guitars

Exact Audio Copy V1.0 beta 3 from 29. August 2011

EAC extraction logfile from 24. October 2015, 0:39

Pierrot La Lune / Out of the wood

Used drive : ATAPI iHAS124 E Adapter: 0 ID: 0

Read mode : Secure
Utilize accurate stream : Yes
Defeat audio cache : Yes
Make use of C2 pointers : No

Read offset correction

: 6
Overread into Lead-In and Lead-Out : No
Fill up missing offset samples with silence : Yes
Delete leading and trailing silent blocks : No
Null samples used in CRC calculations : Yes
Used interface
: Native Win32 interface for Win NT & 2000
Gap handling
: Appended to previous track

Used output format : Internal WAV Routines
Sample format : 44.100 Hz; 16 Bit; Stereo

TOC of the extracted CD Track | Start | Length | Start sector | End sector
--1 | 0:00.00 | 3:48.39 | 0 | 17138 2 | 3:48.39 | 4:03.53 | 17139 | 35416 3 | 7:52.17 | 4:36.44 | 35417 | 56160 4 | 12:28.61 | 3:18.52 | 56161 | 71062 5 | 15:47.38 | 5:56.14 | 71063 | 97776 6 | 21:43.52 | 3:25.24 | 97777 | 113175 7 | 25:09.01 | 3:21.27 | 113176 | 128277 8 | 28:30.28 | 4:53.65 | 128278 | 150317 9 | 33:24.18 | 5:22.45 | 150318 | 174512
10 | 38:46.63 | 3:37.54 | 174513 | 190841
11 | 42:24.42 | 3:45.45 | 190842 | 207761

Track 1 Filename C:\_EAC\01. Le coeur sur terre.wav Pre-gap length 0:00:02.00 Peak level 98.0 %
Extraction speed 1.0 X
Track quality 100.0 %
Test CRC DB4B9291
Copy CRC DB4B9291
Track not present in AccurateRip database
Copy OK

Track 2 Filename C:\_EAC\02. Memoire sensitive.wav Peak level 98.2 %
Extraction speed 1.0 X
Track quality 99.9 %
Test CRC 9E2E4C32
Copy CRC 9E2E4C32
Track not present in AccurateRip database
Copy OK

Track 3 Filename C:\_EAC\03. Vu du ciel.wav Peak level 98.2 %
Extraction speed 1.3 X
Track quality 100.0 %
Test CRC D61E47F9
Copy CRC D61E47F9
Track not present in AccurateRip database
Copy OK

Track 4 Filename C:\_EAC\04. La punition.wav Peak level 97.4 %
Extraction speed 1.3 X
Track quality 100.0 %
Test CRC D1E08D51
Copy CRC D1E08D51
Track not present in AccurateRip database
Copy OK

Track 5 Filename C:\_EAC\05. 39 jours.wav Peak level 98.1 %
Extraction speed 1.5 X
Track quality 100.0 %
Test CRC E63F165F
Copy CRC E63F165F
Track not present in AccurateRip database
Copy OK

Track 6 Filename C:\_EAC\06. Bienveillant.wav Peak level 98.2 %
Extraction speed 1.5 X
Track quality 100.0 %
Test CRC DE216177
Copy CRC DE216177
Track not present in AccurateRip database
Copy OK

Track 7 Filename C:\_EAC\07. Electro tentation.wav Peak level 98.2 %
Extraction speed 1.6 X
Track quality 100.0 %
Test CRC 1235706B
Copy CRC 1235706B
Track not present in AccurateRip database
Copy OK

Track 8 Filename C:\_EAC\08. Aphelie.wav Peak level 98.0 %
Extraction speed 1.7 X
Track quality 100.0 %
Test CRC 2EA760C8
Copy CRC 2EA760C8
Track not present in AccurateRip database
Copy OK

Track 9 Filename C:\_EAC\09. Out of the wood.wav Peak level 98.2 %
Extraction speed 1.8 X
Track quality 100.0 %
Test CRC 7FB620F3
Copy CRC 7FB620F3
Track not present in AccurateRip database
Copy OK

Track 10 Filename C:\_EAC\10. Harmonia.wav Peak level 98.9 %
Extraction speed 1.8 X
Track quality 100.0 %
Test CRC F3553A5D
Copy CRC F3553A5D
Track not present in AccurateRip database
Copy OK

Track 11 Filename C:\_EAC\11. Espagna.wav Peak level 98.0 %
Extraction speed 1.9 X
Track quality 100.0 %
Test CRC 73CDA807
Copy CRC 73CDA807
Track not present in AccurateRip database
Copy OK

None of the tracks are present in the AccurateRip database

No errors occurred

End of status report

==== Log checksum 681FAE857FD277A112506A507957CBE511A1BC13284A24958D4CF9E78BBF31E5 ====

Analyzed: Pierrot La Lune Quartet / Out of the Wood

DR Peak RMS Duration Track

DR9 -0.17 dB -11.62 dB 3:49 01-Le coeur sur terre
DR10 -0.15 dB -11.61 dB 4:04 02-Memoire sensitive
DR7 -0.15 dB -9.78 dB 4:37 03-Vu du ciel
DR9 -0.23 dB -12.85 dB 3:19 04-La Punition
DR14 -0.16 dB -17.13 dB 5:56 05-39 jours
DR8 -0.16 dB -12.20 dB 3:25 06-Bieneillant
DR10 -0.15 dB -12.47 dB 3:21 07-Electro tentation
DR10 -0.17 dB -13.35 dB 4:54 08-Aphelie
DR11 -0.16 dB -13.04 dB 5:23 09-Out of the wood
DR10 -0.10 dB -13.39 dB 3:38 10-Harmonia
DR12 -0.17 dB -13.43 dB 3:46 11-Espagna

Number of tracks: 11
Official DR value: DR10

Samplerate: 44100 Hz
Channels: 2
Bits per sample: 16
Bitrate: 815 kbps
Codec: FLAC

Pierrot La Lune Quartet - Out Of The Wood (2014) {PLLQ14}

Pierrot La Lune Quartet - Out Of The Wood (2014) {PLLQ14}

Pierrot La Lune Quartet - Out Of The Wood (2014) {PLLQ14}



DOWNLOAD LINKS:
Buy Premium To Support Me & Get Resumable Support & Max Speed


Links are Interchangeable - No Password - Single Extraction
Direct Download

Tags: Pierrot, Quartet

Pierrot La Lune Quartet - Out Of The Wood (2014) {PLLQ14} Download via Hotfile Rapidshare Fileserve Megaupload & FileSonic, Pierrot La Lune Quartet - Out Of The Wood (2014) {PLLQ14} free torrent downloads included crack, serial, keygen.Pierrot La Lune Quartet - Out Of The Wood (2014) {PLLQ14} Fast Download via Rapidshare Hotfile Fileserve Filesonic Megaupload, Pierrot La Lune Quartet - Out Of The Wood (2014) {PLLQ14} Torrents and Emule Download or anything related.
Leave a Comment
Your Name:
E-Mail:
Add Comments:

Enter Code: