Sadao Watanabe - Pamoja (1975) {2015 DSD Japan East Wind Masters Collection 1000}

Download Now


Sadao Watanabe - Pamoja (1975) {2015 DSD Japan East Wind Masters Collection 1000}
Sadao Watanabe - Pamoja (1975) {2015 DSD Japan East Wind Masters Collection 1000}
EAC rip (secure mode) | FLAC (tracks)+CUE+LOG -> 298 Mb | MP3 @320 -> 114 Mb
Full Artwork @ 600 dpi (png) -> 173 Mb | 5% repair rar | DSD Mastering
© 2015 East Wind Music / Universal Japan | UCCJ-9152
Jazz / Post Bop / Neo Bop / World Jazz / Fusion / Saxopohone

"Later than Sadao Watanabe's classic period, but a great album with some really wonderful moments! The set was recorded live in Tokyo in 1975, and it features Watanabe working with a group that includes Isao Suzuki on bass, Yshiaki Masuo on guitar, and Takehiro Honda on piano. The four tracks are all long, with some of the searching Coltrane-ish playing that Watanabe brought to his earlier Sony albums, but they've also got a fair bit of the warmth he was reaching for during the 70s - combining elements of world jazz styles into a mode that really pushed his work on alto and flute. Titles include "Pamoja", "Vichakani", and "Musitoni"."

Sadao Watanabe - Pamoja (1975) {2015 DSD Japan East Wind Masters Collection 1000}


Personnel:
Sadao Watanabe - alto sax, flute
Hiroshi Fukumura - trombone
Yoshiaki Masuo - guitar
Takehiro Honda - piano
Isao Suzuki - bass
Hiroshi Murakami - drums
Masahiko Togashi - percussion

tracklist:
01 - Vichakani
02 - Musitoni
03 - Pamoja
04 - Ev'rytime We Say Goodbye

Exact Audio Copy V1.1 from 23. June 2015

EAC extraction logfile from 3. November 2015, 7:35

Sadao Watanabe / Pamoja

Used drive : TSSTcorpCDDVDW SE-208DB Adapter: 7 ID: 0

Read mode : Secure
Utilize accurate stream : Yes
Defeat audio cache : Yes
Make use of C2 pointers : No

Read offset correction

: 6
Overread into Lead-In and Lead-Out : No
Fill up missing offset samples with silence : Yes
Delete leading and trailing silent blocks : No
Null samples used in CRC calculations : Yes
Used interface
: Installed external ASPI interface
Gap handling
: Appended to previous track

Used output format : User Defined Encoder
Selected bitrate : 1024 kBit/s
Quality : High
Add ID3 tag : No
Command line compressor : C:\Program Files (x86)\FLAC Frontend\tools\flac.exe
Additional command line options : -8 -V -T "ARTIST=%artist%" -T "TITLE=%title%" -T "ALBUM=%albumtitle%" -T "DATE=%year%" -T "TRACKNUMBER=%tracknr%" -T "TOTALTRACKS=%numtracks%" -T "GENRE=%genre%" -T "ALBUMARTIST=%albumartist%" -T "ALBUM ARTIST=%albumartist%" -T "COMMENT=EAC Secure Mode, Test & Copy, AccurateRip, FLAC -8" %source%

TOC of the extracted CD Track | Start | Length | Start sector | End sector
--1 | 0:00.00 | 15:35.32 | 0 | 70156 2 | 15:35.32 | 9:16.35 | 70157 | 111891 3 | 24:51.67 | 14:30.65 | 111892 | 177206 4 | 39:22.57 | 8:35.10 | 177207 | 215841

Track 1 Filename M:\_EAC\Sadao Watanabe - Pamoja (1975) [FLAC] {2015 DSD Japan East Wind Masters Collection 1000}\01 - Vichakani.wav Pre-gap length 0:00:02.00 Peak level 100.0 %
Extraction speed 1.5 X
Track quality 100.0 %
Test CRC 932CF3C9
Copy CRC 932CF3C9
Cannot be verified as accurate (confidence 2) 54E37EA, AccurateRip returned [620CEBA1] (AR v2)
Copy OK

Track 2 Filename M:\_EAC\Sadao Watanabe - Pamoja (1975) [FLAC] {2015 DSD Japan East Wind Masters Collection 1000}\02 - Musitoni.wav Peak level 87.2 %
Extraction speed 1.8 X
Track quality 100.0 %
Test CRC 45974DC8
Copy CRC 45974DC8
Cannot be verified as accurate (confidence 2) [4C7EC17E], AccurateRip returned [47820FF0] (AR v2)
Copy OK

Track 3 Filename M:\_EAC\Sadao Watanabe - Pamoja (1975) [FLAC] {2015 DSD Japan East Wind Masters Collection 1000}\03 - Pamoja.wav Peak level 100.0 %
Extraction speed 2.1 X
Track quality 100.0 %
Test CRC 187658BF
Copy CRC 187658BF
Cannot be verified as accurate (confidence 2) [1DD60676], AccurateRip returned [E334CD9A] (AR v2)
Copy OK

Track 4 Filename M:\_EAC\Sadao Watanabe - Pamoja (1975) [FLAC] {2015 DSD Japan East Wind Masters Collection 1000}\04 - Ev'rytime We Say Goodbye.wav Peak level 69.4 %
Extraction speed 2.3 X
Track quality 100.0 %
Test CRC 9F0027A7
Copy CRC 9F0027A7
Cannot be verified as accurate (confidence 2) [FD3F9AD8], AccurateRip returned [7505BB29] (AR v2)
Copy OK

No tracks could be verified as accurate
You may have a different pressing from the one(s) in the database

No errors occurred

End of status report

==== Log checksum F8340918D78D130E8E060F273CC4F723026AD55F1FC83D12F70D508B6E912982 ====

Sadao Watanabe - Pamoja (1975) {2015 DSD Japan East Wind Masters Collection 1000}

Sadao Watanabe - Pamoja (1975) {2015 DSD Japan East Wind Masters Collection 1000}

DOWNLOAD LINKS:
Buy Premium To Support Me & Get Resumable Support & Max Speed


Links are Interchangeable - No Password - Single Extraction
Direct Download

Tags: Watanabe, Pamoja, Masters, Collection

Sadao Watanabe - Pamoja (1975) {2015 DSD Japan East Wind Masters Collection 1000} Download via Hotfile Rapidshare Fileserve Megaupload & FileSonic, Sadao Watanabe - Pamoja (1975) {2015 DSD Japan East Wind Masters Collection 1000} free torrent downloads included crack, serial, keygen.Sadao Watanabe - Pamoja (1975) {2015 DSD Japan East Wind Masters Collection 1000} Fast Download via Rapidshare Hotfile Fileserve Filesonic Megaupload, Sadao Watanabe - Pamoja (1975) {2015 DSD Japan East Wind Masters Collection 1000} Torrents and Emule Download or anything related.
Leave a Comment
Your Name:
E-Mail:
Add Comments:

Enter Code: