Tammi Terrell - Come On And See Me: The Complete Solo Collection [2CD] (2010)

Download Now

Tammi Terrell - Come On And See Me: The Complete Solo Collection [2CD] (2010)

Tammi Terrell - Come On And See Me: The Complete Solo Collection [2CD] (2010)
R&B, Motown, Soul | EAC Rip | FLAC, Tracks+CUE + LOG + Full Artwork-300dpi (PNG) | 72:47 + 64:55 Min | 1,1 Gb
Label: Hip-O Select / Motown Records (USA) | Released: 2010, October, 19

"
"Come And See Me: The Complete Solo Collection" contains 50 tracks across 2CDs and was originally released on Hip-O's own website and then commercially to the USA in the same month - October 2010 - and now has a belated UK release in December 2010.
"

Tammi Terrell - Come On And See Me: The Complete Solo Collection [2CD] (2010)

Tammi Terrell - Come On And See Me: The Complete Solo Collection [2CD] (2010)

Tammi Terrell - Come On And See Me: The Complete Solo Collection [2CD] (2010)


Hip-O Select.com, A Universal Music Company
℗&© 2010 Motown Records, a Division of UMG Recordings, Inc.
Distributed by Universal Music Distribution
Made in USA

Tracklist:

Disc 1

Tammy Montgomery Recordings
01. If You See Bill
02. It's Mine
03. Voice of Experience
04. I Wancha' to Be Sure
05. Sinner's Devotion
06. Make the Night a Little Longer
07. Big John
08. I Cried
09. If You Don't Think
10. If I Would Marry You [Stereo Version] - (previously unreleased)
11. This Time Tomorrow [Stereo Version] - (previously unreleased)
12. I've Got Nothing to Say But Goodbye - (previously unreleased)
13. I Can't Hold It in Any More - (previously unreleased)
14. If I Would Marry You (Duet with Jimmy Radcliffe) - (previously unreleased)

Tammy Terrell: "Irresistible" LP
15. I Can't Believe You Love Me
16. That's What Boys Are Made For
17. Come on and See Me
18. What a Good Man He is
19. Tears at the End of a Love Affair
20. This Old Heart of Mine (Is Weak for You)
21. He's the One I Love
22. Can't Stop Now (Love Is Calling)
23. Just Too Musc to Hope For
24. Hold Me Oh My Darling
25. I Can't Go on Without You

Non-LP Singles
26. Baby Don'tcha Worry [Stereo Version]
27. There Are Things [Stereo Version]

Disc 2

Rare Motown
01. Ain't No Mountain High Enough
02. All I Do Is Think About You
03. Slow Down
04. I Gotta Find a Way (To Get You Back)
05. Oh How I'd Miss You
06. Lone, Lonely Town
07. You Ain't Livin' 'Till You're Lovin' [Stereo Version] - (previously unreleased)
08. Give in You Just Can't Win [Stereo Version] - (previously unreleased)
09. When Love Comes Knocking at My Heart [Stereo Version] - (previously unreleased)
10. Memory Chest [Stereo Version] - (previously unreleased)
11. That's How It Is (Since You've Been Gone) [Stereo Version] - (previously unreleased)
12. More, More, More [Stereo Version] - (previously unreleased)
13. Two Can Have a Party [Stereo Version] - (previously unreleased)
14. My Heart [Stereo Version] - (previously unreleased)
15. Don't Let Me Be Lonely [Stereo Version] - (previously unreleased)
16. Kissing in the Shadows - (previously unreleased)
17. Beware of a Stranger - (previously unreleased)
18. It's Been a Long Time Happenin' - (previously unreleased)

Live At The Roostertail
19. Almost Like Being in Love - (previously unreleased)
20. Stage Dialogue with Emcee Scott Regan - (previously unreleased)
21. I Can't Believe You Love Me - (previously unreleased)
22. Medley: What a Difference a Day Makes/Runnin' Out of Fools/Tell Me the Truth/Baby Love - (previously unreleased)
23. Come on and See Me - (previously unreleased)

Exact Audio Copy V0.99 prebeta 5 from 4. May 2009

EAC extraction logfile from 29. November 2010, 0:48

Tammi Terrell / Come On And See Me (The Complete Solo Collection) CD1

Used drive : PHILIPS DVDR1628P1 Adapter: 4 ID: 0

Read mode : Secure
Utilize accurate stream : Yes
Defeat audio cache : Yes
Make use of C2 pointers : No

Read offset correction

: 618
Overread into Lead-In and Lead-Out : No
Fill up missing offset samples with silence : Yes
Delete leading and trailing silent blocks : No
Null samples used in CRC calculations : Yes
Used interface
: Installed external ASPI interface
Gap handling
: Appended to previous track

Used output format : User Defined Encoder
Selected bitrate : 128 kBit/s
Quality : High
Add ID3 tag : No
Command line compressor : C:\Program Files\Exact Audio Copy\Flac\flac.exe
Additional command line options : -8 -V -T "ARTIST=%a" -T "TITLE=%t" -T "ALBUM=%g" -T "DATE=%y" -T "TRACKNUMBER=%n" -T "TOTALTRACKS=%x" -T "GENRE=%m" -T "ALBUM ARTIST=%v" -T "ALBUMARTIST=%v" -T "COMMENT=EAC V0.99 prebeta 5, Secure Mode, Test & Copy, Accurat

TOC of the extracted CD Track | Start | Length | Start sector | End sector
--1 | 0:00.00 | 3:00.24 | 0 | 13523 2 | 3:00.24 | 2:29.20 | 13524 | 24718 3 | 5:29.44 | 2:11.67 | 24719 | 34610 4 | 7:41.36 | 2:03.50 | 34611 | 43885 5 | 9:45.11 | 2:46.19 | 43886 | 56354 6 | 12:31.30 | 2:33.38 | 56355 | 67867 7 | 15:04.68 | 2:34.45 | 67868 | 79462 8 | 17:39.38 | 2:45.18 | 79463 | 91855 9 | 20:24.56 | 1:53.04 | 91856 | 100334
10 | 22:17.60 | 2:48.23 | 100335 | 112957
11 | 25:06.08 | 2:29.15 | 112958 | 124147
12 | 27:35.23 | 2:33.50 | 124148 | 135672
13 | 30:08.73 | 3:03.72 | 135673 | 149469
14 | 33:12.70 | 3:26.09 | 149470 | 164928
15 | 36:39.04 | 2:34.70 | 164929 | 176548
16 | 39:13.74 | 3:05.74 | 176549 | 190497
17 | 42:19.73 | 2:21.43 | 190498 | 201115
18 | 44:41.41 | 3:01.74 | 201116 | 214764
19 | 47:43.40 | 2:58.14 | 214765 | 228128
20 | 50:41.54 | 2:27.37 | 228129 | 239190
21 | 53:09.16 | 2:38.18 | 239191 | 251058
22 | 55:47.34 | 2:41.50 | 251059 | 263183
23 | 58:29.09 | 2:55.70 | 263184 | 276378
24 | 61:25.04 | 2:40.22 | 276379 | 288400
25 | 64:05.26 | 2:37.26 | 288401 | 300201
26 | 66:42.52 | 2:53.39 | 300202 | 313215
27 | 69:36.16 | 3:11.39 | 313216 | 327579

Track 1 Filename C:\addis gugsa killed my hdd\01 - If You See Bill.wav Pre-gap length 0:00:02.00 Peak level 97.0 %
Track quality 99.9 %
Test CRC 1EE85070
Copy CRC 1EE85070
Track not present in AccurateRip database
Copy OK

Track 2 Filename C:\addis gugsa killed my hdd\02 - It's Mine.wav Pre-gap length 0:00:01.02 Peak level 97.0 %
Track quality 100.0 %
Test CRC 2E229A16
Copy CRC 2E229A16
Track not present in AccurateRip database
Copy OK

Track 3 Filename C:\addis gugsa killed my hdd\03 - Voice Of Experience.wav Pre-gap length 0:00:01.20 Peak level 100.0 %
Track quality 100.0 %
Test CRC EFA9CF94
Copy CRC EFA9CF94
Track not present in AccurateRip database
Copy OK

Track 4 Filename C:\addis gugsa killed my hdd\04 - I Wancha' To Be Shure.wav Pre-gap length 0:00:01.41 Peak level 100.0 %
Track quality 100.0 %
Test CRC F457E730
Copy CRC F457E730
Track not present in AccurateRip database
Copy OK

Track 5 Filename C:\addis gugsa killed my hdd\05 - Sinner's Devotion.wav Peak level 96.9 %
Track quality 100.0 %
Test CRC C2064E3D
Copy CRC C2064E3D
Track not present in AccurateRip database
Copy OK

Track 6 Filename C:\addis gugsa killed my hdd\06 - Make The Night Just A Little Longer.wav Pre-gap length 0:00:01.04 Peak level 100.0 %
Track quality 100.0 %
Test CRC F2CC4E53
Copy CRC F2CC4E53
Track not present in AccurateRip database
Copy OK

Track 7 Filename C:\addis gugsa killed my hdd\07 - Big John.wav Pre-gap length 0:00:01.12 Peak level 93.0 %
Track quality 100.0 %
Test CRC 37D0BBDE
Copy CRC 37D0BBDE
Track not present in AccurateRip database
Copy OK

Track 8 Filename C:\addis gugsa killed my hdd\08 - I Cried.wav Peak level 100.0 %
Track quality 100.0 %
Test CRC BAB26C0E
Copy CRC BAB26C0E
Track not present in AccurateRip database
Copy OK

Track 9 Filename C:\addis gugsa killed my hdd\09 - If You Don't Think.wav Pre-gap length 0:00:01.17 Peak level 93.3 %
Track quality 100.0 %
Test CRC FEC38F5F
Copy CRC FEC38F5F
Track not present in AccurateRip database
Copy OK

Track 10 Filename C:\addis gugsa killed my hdd\10 - If I Would Marry You.wav Pre-gap length 0:00:01.40 Peak level 89.7 %
Track quality 100.0 %
Test CRC F6280825
Copy CRC F6280825
Track not present in AccurateRip database
Copy OK

Track 11 Filename C:\addis gugsa killed my hdd\11 - This Time Tomorrow.wav Pre-gap length 0:00:01.34 Peak level 100.0 %
Track quality 100.0 %
Test CRC 40496968
Copy CRC 40496968
Track not present in AccurateRip database
Copy OK

Track 12 Filename C:\addis gugsa killed my hdd\12 - I've Got Nothing To Say But Goodbye.wav Pre-gap length 0:00:01.33 Peak level 100.0 %
Track quality 100.0 %
Test CRC 5BBD5261
Copy CRC 5BBD5261
Track not present in AccurateRip database
Copy OK

Track 13 Filename C:\addis gugsa killed my hdd\13 - I Can't Hold It In Any More.wav Pre-gap length 0:00:01.72 Peak level 100.0 %
Track quality 99.9 %
Test CRC 1E309DCA
Copy CRC 1E309DCA
Track not present in AccurateRip database
Copy OK

Track 14 Filename C:\addis gugsa killed my hdd\14 - If I Would Mary You (Duet With Jimmy Radcliffe).wav Pre-gap length 0:00:01.29 Peak level 99.6 %
Track quality 100.0 %
Test CRC 51B776D7
Copy CRC 51B776D7
Track not present in AccurateRip database
Copy OK

Track 15 Filename C:\addis gugsa killed my hdd\15 - I Can't Beleive You Love Me.wav Pre-gap length 0:00:01.06 Peak level 99.1 %
Track quality 100.0 %
Test CRC D1D16A50
Copy CRC D1D16A50
Track not present in AccurateRip database
Copy OK

Track 16 Filename C:\addis gugsa killed my hdd\16 - That's What Boy Are Made For.wav Pre-gap length 0:00:01.08 Peak level 88.2 %
Track quality 100.0 %
Test CRC 07A92D2D
Copy CRC 07A92D2D
Track not present in AccurateRip database
Copy OK

Track 17 Filename C:\addis gugsa killed my hdd\17 - Come On And See Me.wav Pre-gap length 0:00:01.18 Peak level 95.7 %
Track quality 100.0 %
Test CRC 2EAF150B
Copy CRC 2EAF150B
Track not present in AccurateRip database
Copy OK

Track 18 Filename C:\addis gugsa killed my hdd\18 - What A Good Man He Is.wav Pre-gap length 0:00:01.30 Peak level 100.0 %
Track quality 100.0 %
Test CRC 635423A9
Copy CRC 635423A9
Track not present in AccurateRip database
Copy OK

Track 19 Filename C:\addis gugsa killed my hdd\19 - Tears At The End Of A Love Affair.wav Pre-gap length 0:00:01.01 Peak level 97.9 %
Track quality 100.0 %
Test CRC 94A64DF9
Copy CRC 94A64DF9
Track not present in AccurateRip database
Copy OK

Track 20 Filename C:\addis gugsa killed my hdd\20 - This Old Heart Of Mine (Is Weak For You).wav Pre-gap length 0:00:01.13 Peak level 99.8 %
Track quality 100.0 %
Test CRC 80EB168E
Copy CRC 80EB168E
Track not present in AccurateRip database
Copy OK

Track 21 Filename C:\addis gugsa killed my hdd\21 - He's The One I Love.wav Pre-gap length 0:00:01.06 Peak level 99.0 %
Track quality 100.0 %
Test CRC 6849F42C
Copy CRC 6849F42C
Track not present in AccurateRip database
Copy OK

Track 22 Filename C:\addis gugsa killed my hdd\22 - Can't Stop Now (Love Is Calling).wav Pre-gap length 0:00:01.05 Peak level 98.8 %
Track quality 100.0 %
Test CRC 037F8698
Copy CRC 037F8698
Track not present in AccurateRip database
Copy OK

Track 23 Filename C:\addis gugsa killed my hdd\23 - Just To Much Too Hope For.wav Pre-gap length 0:00:01.08 Peak level 95.8 %
Track quality 100.0 %
Test CRC ADD350B9
Copy CRC ADD350B9
Track not present in AccurateRip database
Copy OK

Track 24 Filename C:\addis gugsa killed my hdd\24 - Hold Me Oh My Darling.wav Pre-gap length 0:00:01.09 Peak level 97.5 %
Track quality 100.0 %
Test CRC 831EB12D
Copy CRC 831EB12D
Track not present in AccurateRip database
Copy OK

Track 25 Filename C:\addis gugsa killed my hdd\25 - I Can't Go On Without You.wav Pre-gap length 0:00:01.06 Peak level 100.0 %
Track quality 100.0 %
Test CRC 243E59EB
Copy CRC 243E59EB
Track not present in AccurateRip database
Copy OK

Track 26 Filename C:\addis gugsa killed my hdd\26 - Baby Don'tcha Worry (Stereo Version).wav Pre-gap length 0:00:01.06 Peak level 99.9 %
Track quality 100.0 %
Test CRC 633A4B76
Copy CRC 633A4B76
Track not present in AccurateRip database
Copy OK

Track 27 Filename C:\addis gugsa killed my hdd\27 - There Are Things (Stereo Version).wav Pre-gap length 0:00:01.08 Peak level 91.6 %
Track quality 100.0 %
Test CRC 257C40C3
Copy CRC 257C40C3
Track not present in AccurateRip database
Copy OK

None of the tracks are present in the AccurateRip database

No errors occurred

End of status report

Exact Audio Copy V0.99 prebeta 5 from 4. May 2009

EAC extraction logfile from 29. November 2010, 13:23

Tammi Terrell / Come On And See Me (The Complete Solo Collection) CD2

Used drive : PHILIPS DVDR1628P1 Adapter: 4 ID: 0

Read mode : Secure
Utilize accurate stream : Yes
Defeat audio cache : Yes
Make use of C2 pointers : No

Read offset correction

: 618
Overread into Lead-In and Lead-Out : No
Fill up missing offset samples with silence : Yes
Delete leading and trailing silent blocks : No
Null samples used in CRC calculations : Yes
Used interface
: Installed external ASPI interface
Gap handling
: Appended to previous track

Used output format : User Defined Encoder
Selected bitrate : 128 kBit/s
Quality : High
Add ID3 tag : No
Command line compressor : C:\Program Files\Exact Audio Copy\Flac\flac.exe
Additional command line options : -8 -V -T "ARTIST=%a" -T "TITLE=%t" -T "ALBUM=%g" -T "DATE=%y" -T "TRACKNUMBER=%n" -T "TOTALTRACKS=%x" -T "GENRE=%m" -T "ALBUM ARTIST=%v" -T "ALBUMARTIST=%v" -T "COMMENT=EAC V0.99 prebeta 5, Secure Mode, Test & Copy, Accurat

TOC of the extracted CD Track | Start | Length | Start sector | End sector
--1 | 0:00.00 | 2:26.26 | 0 | 10975 2 | 2:26.26 | 2:59.57 | 10976 | 24457 3 | 5:26.08 | 2:49.51 | 24458 | 37183 4 | 8:15.59 | 3:00.50 | 37184 | 50733 5 | 11:16.34 | 2:41.28 | 50734 | 62836 6 | 13:57.62 | 2:55.40 | 62837 | 76001 7 | 16:53.27 | 2:51.33 | 76002 | 88859 8 | 19:44.60 | 2:40.09 | 88860 | 100868 9 | 22:24.69 | 2:41.42 | 100869 | 112985
10 | 25:06.36 | 3:09.15 | 112986 | 127175
11 | 28:15.51 | 3:29.32 | 127176 | 142882
12 | 31:45.08 | 2:47.05 | 142883 | 155412
13 | 34:32.13 | 2:35.06 | 155413 | 167043
14 | 37:07.19 | 3:05.00 | 167044 | 180918
15 | 40:12.19 | 3:37.48 | 180919 | 197241
16 | 43:49.67 | 2:54.61 | 197242 | 210352
17 | 46:44.53 | 2:48.34 | 210353 | 222986
18 | 49:33.12 | 2:32.03 | 222987 | 234389
19 | 52:05.15 | 1:52.41 | 234390 | 242830
20 | 53:57.56 | 0:40.17 | 242831 | 245847
21 | 54:37.73 | 2:30.63 | 245848 | 257160
22 | 57:08.61 | 4:48.23 | 257161 | 278783
23 | 61:57.09 | 2:58.37 | 278784 | 292170

Track 1 Filename C:\addis gugsa killed my hdd\01 - Ain't No Mountain High Enough.wav Pre-gap length 0:00:02.00 Peak level 100.0 %
Track quality 100.0 %
Test CRC 7ADDB7FB
Copy CRC 7ADDB7FB
Track not present in AccurateRip database
Copy OK

Track 2 Filename C:\addis gugsa killed my hdd\02 - All I Do Is Think About You.wav Pre-gap length 0:00:01.01 Peak level 99.9 %
Track quality 100.0 %
Test CRC 26C40E59
Copy CRC 26C40E59
Track not present in AccurateRip database
Copy OK

Track 3 Filename C:\addis gugsa killed my hdd\03 - Slowdown.wav Pre-gap length 0:00:01.14 Peak level 93.7 %
Track quality 99.9 %
Test CRC 2C5CF52E
Copy CRC 2C5CF52E
Track not present in AccurateRip database
Copy OK

Track 4 Filename C:\addis gugsa killed my hdd\04 - Gotta Find A Way (To Get You Back).wav Pre-gap length 0:00:01.08 Peak level 100.0 %
Track quality 99.9 %
Test CRC EEA521F7
Copy CRC EEA521F7
Track not present in AccurateRip database
Copy OK

Track 5 Filename C:\addis gugsa killed my hdd\05 - Oh How I'd Miss You.wav Pre-gap length 0:00:01.10 Peak level 100.0 %
Track quality 99.9 %
Test CRC 7885E2C8
Copy CRC 7885E2C8
Track not present in AccurateRip database
Copy OK

Track 6 Filename C:\addis gugsa killed my hdd\06 - Lone Lonely Town.wav Pre-gap length 0:00:01.06 Peak level 98.2 %
Track quality 100.0 %
Test CRC 2563BD00
Copy CRC 2563BD00
Track not present in AccurateRip database
Copy OK

Track 7 Filename C:\addis gugsa killed my hdd\07 - You Ain't Livin' Till You're Lovin'.wav Pre-gap length 0:00:01.01 Peak level 99.7 %
Track quality 100.0 %
Test CRC 85B83408
Copy CRC 85B83408
Track not present in AccurateRip database
Copy OK

Track 8 Filename C:\addis gugsa killed my hdd\08 - Give In You Just Can't Win.wav Pre-gap length 0:00:01.14 Peak level 100.0 %
Track quality 100.0 %
Test CRC 85113215
Copy CRC 85113215
Track not present in AccurateRip database
Copy OK

Track 9 Filename C:\addis gugsa killed my hdd\09 - When Love Comes Knocking At My Heart.wav Pre-gap length 0:00:01.06 Peak level 99.6 %
Track quality 100.0 %
Test CRC D767F551
Copy CRC D767F551
Track not present in AccurateRip database
Copy OK

Track 10 Filename C:\addis gugsa killed my hdd\10 - Memory Chest.wav Pre-gap length 0:00:01.06 Peak level 100.0 %
Track quality 100.0 %
Test CRC DAC67591
Copy CRC DAC67591
Track not present in AccurateRip database
Copy OK

Track 11 Filename C:\addis gugsa killed my hdd\11 - That's How It Is (Since You 've Been Gone).wav Pre-gap length 0:00:01.04 Peak level 99.5 %
Track quality 100.0 %
Test CRC 9955CCC6
Copy CRC 9955CCC6
Track not present in AccurateRip database
Copy OK

Track 12 Filename C:\addis gugsa killed my hdd\12 - More More More.wav Pre-gap length 0:00:01.29 Peak level 99.8 %
Track quality 100.0 %
Test CRC AB937577
Copy CRC AB937577
Track not present in AccurateRip database
Copy OK

Track 13 Filename C:\addis gugsa killed my hdd\13 - Two Can Have A Party.wav Pre-gap length 0:00:01.24 Peak level 100.0 %
Track quality 99.9 %
Test CRC 908B7674
Copy CRC 908B7674
Track not present in AccurateRip database
Copy OK

Track 14 Filename C:\addis gugsa killed my hdd\14 - My Heart.wav Pre-gap length 0:00:01.40 Peak level 93.0 %
Track quality 100.0 %
Test CRC 02903503
Copy CRC 02903503
Track not present in AccurateRip database
Copy OK

Track 15 Filename C:\addis gugsa killed my hdd\15 - Don't Let Me Be Lonely.wav Pre-gap length 0:00:01.08 Peak level 96.4 %
Track quality 100.0 %
Test CRC D451E7A3
Copy CRC D451E7A3
Track not present in AccurateRip database
Copy OK

Track 16 Filename C:\addis gugsa killed my hdd\16 - Kissing In The Shadows.wav Pre-gap length 0:00:01.29 Peak level 96.6 %
Track quality 100.0 %
Test CRC FE6FA0F7
Copy CRC FE6FA0F7
Track not present in AccurateRip database
Copy OK

Track 17 Filename C:\addis gugsa killed my hdd\17 - Beware Of Stranger.wav Pre-gap length 0:00:01.17 Peak level 100.0 %
Track quality 100.0 %
Test CRC AB4A62F1
Copy CRC AB4A62F1
Track not present in AccurateRip database
Copy OK

Track 18 Filename C:\addis gugsa killed my hdd\18 - It's Been A Long Time Happenin'.wav Pre-gap length 0:00:01.44 Peak level 100.0 %
Track quality 100.0 %
Test CRC 978ECCE9
Copy CRC 978ECCE9
Track not present in AccurateRip database
Copy OK

Track 19 Filename C:\addis gugsa killed my hdd\19 - Almost Like Being In Love (Live).wav Pre-gap length 0:00:02.10 Peak level 86.3 %
Track quality 99.9 %
Test CRC 4C845142
Copy CRC 4C845142
Track not present in AccurateRip database
Copy OK

Track 20 Filename C:\addis gugsa killed my hdd\20 - Stage Dialogue With Emcee Scott Regan.wav Peak level 86.2 %
Track quality 100.0 %
Test CRC 1B5580B2
Copy CRC 1B5580B2
Track not present in AccurateRip database
Copy OK

Track 21 Filename C:\addis gugsa killed my hdd\21 - I Can't Beleive You Love Me (Live).wav Peak level 86.3 %
Track quality 100.0 %
Test CRC 5332E559
Copy CRC 5332E559
Track not present in AccurateRip database
Copy OK

Track 22 Filename C:\addis gugsa killed my hdd\22 - Medley (What A Difference A Day Makes - Runin'out Of Fools - Tell Me The Truth - Baby Love (Live).wav Peak level 86.1 %
Track quality 100.0 %
Test CRC 0F8E017A
Copy CRC 0F8E017A
Track not present in AccurateRip database
Copy OK

Track 23 Filename C:\addis gugsa killed my hdd\23 - Come On And See Me (Live).wav Peak level 86.2 %
Track quality 100.0 %
Test CRC 3FB9C5D1
Copy CRC 3FB9C5D1
Track not present in AccurateRip database
Copy OK

None of the tracks are present in the AccurateRip database

No errors occurred

End of status report

foobar2000 1.3.7 / Dynamic Range Meter 1.1.1
log date: 2015-11-04 15:19:48

Analyzed: Tammi Terrell / Come On And See Me (The Complete Solo Collection) CD1

DR Peak RMS Duration Track

DR5 -0.26 dB -8.00 dB 3:00 01-If You See Bill
DR5 -0.26 dB -6.39 dB 2:29 02-It's Mine
DR6 0.00 dB -8.03 dB 2:12 03-Voice Of Experience
DR5 0.00 dB -6.95 dB 2:04 04-I Wancha' To Be Shure
DR7 -0.27 dB -8.63 dB 2:46 05-Sinner's Devotion
DR7 0.00 dB -8.76 dB 2:34 06-Make The Night Just A Little Longer
DR6 -0.62 dB -8.49 dB 2:35 07-Big John
DR5 0.00 dB -7.27 dB 2:45 08-I Cried
DR5 -0.60 dB -7.53 dB 1:53 09-If You Don't Think
DR6 -0.94 dB -8.54 dB 2:48 10-If I Would Marry You
DR7 0.00 dB -8.44 dB 2:29 11-This Time Tomorrow
DR8 0.00 dB -9.18 dB 2:34 12-I've Got Nothing To Say But Goodbye
DR8 0.00 dB -10.27 dB 3:04 13-I Can't Hold It In Any More
DR7 -0.03 dB -8.49 dB 3:26 14-If I Would Mary You (Duet With Jimmy Radcliffe)
DR8 -0.08 dB -9.55 dB 2:35 15-I Can't Beleive You Love Me
DR7 -1.08 dB -9.87 dB 3:06 16-That's What Boy Are Made For
DR7 -0.38 dB -8.52 dB 2:22 17-Come On And See Me
DR8 0.00 dB -9.20 dB 3:02 18-What A Good Man He Is
DR7 -0.18 dB -8.55 dB 2:58 19-Tears At The End Of A Love Affair
DR8 -0.02 dB -9.66 dB 2:27 20-This Old Heart Of Mine (Is Weak For You)
DR8 -0.09 dB -10.07 dB 2:38 21-He's The One I Love
DR7 -0.10 dB -8.71 dB 2:42 22-Can't Stop Now (Love Is Calling)
DR8 -0.37 dB -10.16 dB 2:56 23-Just To Much Too Hope For
DR8 -0.22 dB -9.98 dB 2:40 24-Hold Me Oh My Darling
DR8 0.00 dB -9.98 dB 2:37 25-I Can't Go On Without You
DR7 -0.01 dB -8.81 dB 2:54 26-Baby Don'tcha Worry (Stereo Version)
DR6 -0.76 dB -8.14 dB 3:12 27-There Are Things (Stereo Version)

Number of tracks: 27
Official DR value: DR7

Samplerate: 44100 Hz
Channels: 2
Bits per sample: 16
Bitrate: 1003 kbps
Codec: FLAC

foobar2000 1.3.7 / Dynamic Range Meter 1.1.1
log date: 2015-11-04 15:33:25

Analyzed: Tammi Terrell / Come On And See Me (The Complete Solo Collection) CD2

DR Peak RMS Duration Track

DR6 0.00 dB -6.85 dB 2:26 01-Ain't No Mountain High Enough
DR6 0.00 dB -7.50 dB 3:00 02-All I Do Is Think About You
DR5 -0.56 dB -7.15 dB 2:50 03-Slowdown
DR7 0.00 dB -8.08 dB 3:01 04-Gotta Find A Way (To Get You Back)
DR7 0.00 dB -8.96 dB 2:41 05-Oh How I'd Miss You
DR6 -0.15 dB -7.57 dB 2:56 06-Lone Lonely Town
DR7 -0.02 dB -8.25 dB 2:51 07-You Ain't Livin' Till You're Lovin'
DR7 0.00 dB -8.08 dB 2:40 08-Give In You Just Can't Win
DR8 -0.03 dB -8.71 dB 2:42 09-When Love Comes Knocking At My Heart
DR8 0.00 dB -8.98 dB 3:09 10-Memory Chest
DR8 -0.04 dB -8.91 dB 3:29 11-That's How It Is (Since You 've Been Gone)
DR8 -0.01 dB -8.71 dB 2:47 12-More More More
DR7 0.00 dB -8.08 dB 2:35 13-Two Can Have A Party
DR7 -0.63 dB -8.62 dB 3:05 14-My Heart
DR7 -0.31 dB -8.14 dB 3:38 15-Don't Let Me Be Lonely
DR7 -0.30 dB -7.72 dB 2:55 16-Kissing In The Shadows
DR7 0.00 dB -8.07 dB 2:48 17-Beware Of Stranger
DR8 0.00 dB -9.48 dB 2:32 18-It's Been A Long Time Happenin'
DR5 -1.28 dB -7.55 dB 1:53 19-Almost Like Being In Love (Live)
DR10 -1.29 dB -15.96 dB 0:40 20-Stage Dialogue With Emcee Scott Regan
DR5 -1.28 dB -7.41 dB 2:31 21-I Can't Beleive You Love Me (Live)
DR5 -1.30 dB -9.18 dB 4:48 22-Medley (What A Difference A Day Makes - Runin'out Of Fools - Tell Me The Truth - Baby Love (Live)
DR5 -1.29 dB -6.88 dB 2:58 23-Come On And See Me (Live)

Number of tracks: 23
Official DR value: DR7

Samplerate: 44100 Hz
Channels: 2
Bits per sample: 16
Bitrate: 988 kbps
Codec: FLAC
password: BlondStyle
DOWNLOAD LINKS
Buy Premium From My Links To Get Resumable Support & Max Speed & To Support Me


Links are Interchangeable - No Password - Single Extraction
Direct Download

Tags: Terrell, Complete, Collection

Tammi Terrell - Come On And See Me: The Complete Solo Collection [2CD] (2010) Download via Hotfile Rapidshare Fileserve Megaupload & FileSonic, Tammi Terrell - Come On And See Me: The Complete Solo Collection [2CD] (2010) free torrent downloads included crack, serial, keygen.Tammi Terrell - Come On And See Me: The Complete Solo Collection [2CD] (2010) Fast Download via Rapidshare Hotfile Fileserve Filesonic Megaupload, Tammi Terrell - Come On And See Me: The Complete Solo Collection [2CD] (2010) Torrents and Emule Download or anything related.
Leave a Comment
Your Name:
E-Mail:
Add Comments:

Enter Code: