Affinity ‎- Origins 1965-67 (2004)

Download Now

Affinity ‎- Origins 1965-67 (2004)

Affinity ‎- Origins 1965-67 (2004)
EAC Rip | FLAC (tracks & cue & log) | 321 MB | MP3 CBR 320 kbps | 134 MB | Scans | 1:00:46
Genre: Progressive Rock / Jazz-Rock / Prog Related | Country: UK | Label: Angel Air Records | SJPCD167

"For a band whose own career stretched no further than one self-titled album that is worshipped as much for its scarcity as its actual quality, Affinity has proven quite the shelf-stuffer in recent years. Vocalist Linda Hoyle's solo album, and the band's attempts to continue on without her, have both seen release, and now the clock turns back to the years before Affinity was even dreamed of, in the form of drummer Mo Foster and pianist Lynton Naiff's earliest collaboration.Alongside double-bassist Nick Nicholas -- now a philosophy lecturer in Canada, trivia fans -- the pair formed the succinctly and so accurately named Jazz Trio, and it's their recordings that make up this set, a clutch of songs recorded in sundry locations around their university base: a rudimentary studio, the debating chamber, and various noisy bars.It's fairly straightforward stuff; the trio's repertoire was locked into light jazz arrangements of sundry pop and torch classics, and little about Origins could ever prepare the listener for the full force of the later Affinity."

Affinity ‎- Origins 1965-67 (2004)


discogs

Tracklist:

01. Autumn Leaves - 4:49
02. Django - 3:30
03. My Funny Valentine - 3:16
04. I Got Plenty - 4:54
05. Dat Dere - 6:21
06. Lover Man - 5:23
07. Blues Etude - 1:49
08. Some Day My Prince Will Come - 2:28
09. Cubano Chant - 2:35
10. Jordu - 0:58
11. My Funny Valentine - 5:00
12. Autumn Leaves - 5:31
13. You Look Good To Me - 6:17
14. The Preacher - 5:34
15. My Funny Valentine (Bonus 1980) - 2:13

EAC extraction logfile from 6. July 2009, 18:34 for CD
Affinity / Origins: 1965-67

Used drive : TSSTcorpCD/DVDW TS-H552D Adapter: 0 ID: 0
Read mode : Secure with NO C2, accurate stream, disable cache
Read offset correction : 6
Overread into Lead-In and Lead-Out : No

Used output format : C:\Users\Pollux\Downloads\Syrup098b7\Syrup.exe (User Defined Encoder) 320 kBit/s Additional command line options : REACT %o %s %d "%a" "%g" "%t" "%n" "%x" "%y" "%m" "%e" "%f" "%b" %r

Other options :
Fill up missing offset samples with silence : Yes
Delete leading and trailing silent blocks : No
Native Win32 interface for Win NT & 2000

Track 1
Filename D:\Pollux\Affinity - Origins- 1965-67 - 01 - Autumn Leaves.wav Pre-gap length 0:00:02.00 Peak level 98.8 %
Track quality 100.0 %
Test CRC 3D66D2BB
Copy CRC 3D66D2BB
Copy OK

Track 2
Filename D:\Pollux\Affinity - Origins- 1965-67 - 02 - Django.wav Pre-gap length 0:00:02.00 Peak level 98.8 %
Track quality 100.0 %
Test CRC B4EFD36C
Copy CRC B4EFD36C
Copy OK

Track 3
Filename D:\Pollux\Affinity - Origins- 1965-67 - 03 - My Funny Valentine.wav Pre-gap length 0:00:02.00 Peak level 98.8 %
Track quality 100.0 %
Test CRC C43E78AC
Copy CRC C43E78AC
Copy OK

Track 4
Filename D:\Pollux\Affinity - Origins- 1965-67 - 04 - I Got Plenty.wav Pre-gap length 0:00:02.00 Peak level 98.8 %
Track quality 100.0 %
Test CRC 449D9E1A
Copy CRC 449D9E1A
Copy OK

Track 5
Filename D:\Pollux\Affinity - Origins- 1965-67 - 05 - Dat Dere.wav Pre-gap length 0:00:02.00 Peak level 98.8 %
Track quality 100.0 %
Test CRC A310D5CC
Copy CRC A310D5CC
Copy OK

Track 6
Filename D:\Pollux\Affinity - Origins- 1965-67 - 06 - Lover Man.wav Pre-gap length 0:00:02.00 Peak level 98.8 %
Track quality 99.9 %
Test CRC BEB73FC3
Copy CRC BEB73FC3
Copy OK

Track 7
Filename D:\Pollux\Affinity - Origins- 1965-67 - 07 - Blues Etude.wav Pre-gap length 0:00:02.00 Peak level 77.5 %
Track quality 100.0 %
Test CRC 72410507
Copy CRC 72410507
Copy OK

Track 8
Filename D:\Pollux\Affinity - Origins- 1965-67 - 08 - Some Day My Prince Will Come.wav Pre-gap length 0:00:02.00 Peak level 96.9 %
Track quality 100.0 %
Test CRC 62620B0C
Copy CRC 62620B0C
Copy OK

Track 9
Filename D:\Pollux\Affinity - Origins- 1965-67 - 09 - Cubano Chant.wav Pre-gap length 0:00:02.00 Peak level 98.8 %
Track quality 100.0 %
Test CRC C647137B
Copy CRC C647137B
Copy OK

Track 10
Filename D:\Pollux\Affinity - Origins- 1965-67 - 10 - Jordu.wav Pre-gap length 0:00:02.00 Peak level 98.8 %
Track quality 100.0 %
Test CRC 05973B9A
Copy CRC 05973B9A
Copy OK

Track 11
Filename D:\Pollux\Affinity - Origins- 1965-67 - 11 - My Funny Valentine.wav Pre-gap length 0:00:02.00 Peak level 98.8 %
Track quality 100.0 %
Test CRC AFAF0758
Copy CRC AFAF0758
Copy OK

Track 12
Filename D:\Pollux\Affinity - Origins- 1965-67 - 12 - Autumn Leaves.wav Pre-gap length 0:00:02.00 Peak level 96.0 %
Track quality 100.0 %
Test CRC 1EFCC4E7
Copy CRC 1EFCC4E7
Copy OK

Track 13
Filename D:\Pollux\Affinity - Origins- 1965-67 - 13 - You Look Good To Me.wav Pre-gap length 0:00:02.00 Peak level 93.6 %
Track quality 100.0 %
Test CRC D663D8D5
Copy CRC D663D8D5
Copy OK

Track 14
Filename D:\Pollux\Affinity - Origins- 1965-67 - 14 - The Preacher.wav Pre-gap length 0:00:02.00 Peak level 98.8 %
Track quality 100.0 %
Test CRC 9F4B230D
Copy CRC 9F4B230D
Copy OK

Track 15
Filename D:\Pollux\Affinity - Origins- 1965-67 - 15 - My Funny Valentine.wav Pre-gap length 0:00:02.00 Peak level 71.3 %
Track quality 99.9 %
Test CRC D093129A
Copy CRC D093129A
Copy OK

No errors occured

End of status report

Personnel

- Mo Foster / Drums
- Lynton Naiff / Piano
- Nick Nichols / Double bass

All thanks to Pollux
DOWNLOAD LINKS
Buy Premium From My Links To Get Resumable Support & Max Speed & To Support Me


Links are Interchangeable - No Password - Single Extraction
Direct Download

Tags: Affinity, Origins

Affinity ‎- Origins 1965-67 (2004) Download via Hotfile Rapidshare Fileserve Megaupload & FileSonic, Affinity ‎- Origins 1965-67 (2004) free torrent downloads included crack, serial, keygen.Affinity ‎- Origins 1965-67 (2004) Fast Download via Rapidshare Hotfile Fileserve Filesonic Megaupload, Affinity ‎- Origins 1965-67 (2004) Torrents and Emule Download or anything related.
Leave a Comment
Your Name:
E-Mail:
Add Comments:

Enter Code: