Pavlov's Dog - The Pekin Tapes (2014)

Download Now

Pavlov's Dog - The Pekin Tapes (2014)

Pavlov's Dog - The Pekin Tapes (2014)
EAC Rip | FLAC (tracks+.cue+log) - 401 MB | Covers - 44 MB
Genre: Progressive Rock | RAR 3% Rec. | Label: Rockville Music

"Barely anybody knows that by the time Pavlov's Dog's iconic debut album "Pampered Menial" was released in 1975, the band had already recorded a full album nearly two years earlier. The untitled album, therefor just called the "Pekin Tapes", was recorded in just three days in October 1973 at Golden Voice Stodio in Pekin/IL and was originally designated to become the band's debut album. But destiny had a different plan..."

Tracklist:
01. Subway Sue
02. Natchez Trace
03. Time
04. Stomp Water Magic
05. It's all for You
06. Song Dance
07. Dreams
08. Clipper Ship
09. Fast Gun
10. Preludin & Fellacio in E Minor
11. Brand New Day (Demo, Bonus track)
12. Natchez Trace (Demo, Bonus track)
13. Fast Gun (Demo, Bonus track)
14. I Wish it Would Rain (Demo, Bonus track)

Total time: 01:08:15

Exact Audio Copy V1.0 beta 3 from 29. August 2011

EAC extraction logfile from 22. March 2015, 0:30

Pavlov's Dog / The Pekin Tapes

Used drive : _NEC DVD_RW ND-3540A Adapter: 1 ID: 0

Read mode : Secure
Utilize accurate stream : Yes
Defeat audio cache : Yes
Make use of C2 pointers : No

Read offset correction

: 48
Overread into Lead-In and Lead-Out : No
Fill up missing offset samples with silence : Yes
Delete leading and trailing silent blocks : No
Null samples used in CRC calculations : Yes
Used interface
: Native Win32 interface for Win NT & 2000
Gap handling
: Appended to previous track

Used output format : User Defined Encoder
Selected bitrate : 1024 kBit/s
Quality : High
Add ID3 tag : Yes
Command line compressor : C:\Program Files (x86)\Exact Audio Copy\FLAC\FLAC.EXE
Additional command line options : -6 -V -T "ARTIST=%artist%" -T "TITLE=%title%" -T "ALBUM=%albumtitle%" -T "DATE=%year%" -T "TRACKNUMBER=%tracknr%" -T "GENRE=%genre%" -T "COMMENT=%comment%" %hascover%--picture="%coverfile%"%hascover% %source% -o %dest%

TOC of the extracted CD Track | Start | Length | Start sector | End sector
--1 | 0:00.00 | 5:52.53 | 0 | 26452 2 | 5:52.53 | 3:57.36 | 26453 | 44263 3 | 9:50.14 | 5:24.54 | 44264 | 68617 4 | 15:14.68 | 3:50.06 | 68618 | 85873 5 | 19:04.74 | 5:21.20 | 85874 | 109968 6 | 24:26.19 | 5:43.64 | 109969 | 135757 7 | 30:10.08 | 4:58.45 | 135758 | 158152 8 | 35:08.53 | 5:32.67 | 158153 | 183119 9 | 40:41.45 | 3:35.31 | 183120 | 199275
10 | 44:17.01 | 7:29.67 | 199276 | 233017
11 | 51:46.68 | 3:33.50 | 233018 | 249042
12 | 55:20.43 | 4:06.52 | 249043 | 267544
13 | 59:27.20 | 3:41.70 | 267545 | 284189
14 | 63:09.15 | 5:05.13 | 284190 | 307077

Track 1 Filename F:\Music\olaf_alien\Pavlov's Dog - The Pekin Tapes (2014, Rockville Music)\01 - Subway Sue.wav Pre-gap length 0:00:02.00 Peak level 90.1 %
Extraction speed 1.1 X
Track quality 100.0 %
Test CRC 7368686C
Copy CRC 7368686C
Accurately ripped (confidence 4) [8CD21529] (AR v2)
Copy OK

Track 2 Filename F:\Music\olaf_alien\Pavlov's Dog - The Pekin Tapes (2014, Rockville Music)\02 - Natchez Trace.wav Peak level 86.1 %
Extraction speed 1.0 X
Track quality 100.0 %
Test CRC 22408050
Copy CRC 22408050
Accurately ripped (confidence 4) [683B9ED1] (AR v2)
Copy OK

Track 3 Filename F:\Music\olaf_alien\Pavlov's Dog - The Pekin Tapes (2014, Rockville Music)\03 - Time.wav Peak level 83.3 %
Extraction speed 1.0 X
Track quality 99.9 %
Test CRC 048A3A3C
Copy CRC 048A3A3C
Accurately ripped (confidence 4) [9FED7269] (AR v2)
Copy OK

Track 4 Filename F:\Music\olaf_alien\Pavlov's Dog - The Pekin Tapes (2014, Rockville Music)\04 - Stomp Water Magic.wav Peak level 85.2 %
Extraction speed 0.9 X
Track quality 99.9 %
Test CRC 9BF22022
Copy CRC 9BF22022
Accurately ripped (confidence 4) [CE79EC56] (AR v2)
Copy OK

Track 5 Filename F:\Music\olaf_alien\Pavlov's Dog - The Pekin Tapes (2014, Rockville Music)\05 - It's All For You.wav Peak level 79.2 %
Extraction speed 1.1 X
Track quality 100.0 %
Test CRC 98C51266
Copy CRC 98C51266
Accurately ripped (confidence 4) [48B31F7B] (AR v2)
Copy OK

Track 6 Filename F:\Music\olaf_alien\Pavlov's Dog - The Pekin Tapes (2014, Rockville Music)\06 - Song Dance.wav Peak level 77.5 %
Extraction speed 1.1 X
Track quality 100.0 %
Test CRC 0BB55EC5
Copy CRC 0BB55EC5
Accurately ripped (confidence 4) [EF337094] (AR v2)
Copy OK

Track 7 Filename F:\Music\olaf_alien\Pavlov's Dog - The Pekin Tapes (2014, Rockville Music)\07 - Dreams.wav Peak level 72.7 %
Extraction speed 1.1 X
Track quality 100.0 %
Test CRC BE5EBD9B
Copy CRC BE5EBD9B
Accurately ripped (confidence 4) [79804D56] (AR v2)
Copy OK

Track 8 Filename F:\Music\olaf_alien\Pavlov's Dog - The Pekin Tapes (2014, Rockville Music)\08 - Clipper Ship.wav Peak level 92.9 %
Extraction speed 1.1 X
Track quality 100.0 %
Test CRC 64A7FD48
Copy CRC 64A7FD48
Accurately ripped (confidence 4) [C047A3F0] (AR v2)
Copy OK

Track 9 Filename F:\Music\olaf_alien\Pavlov's Dog - The Pekin Tapes (2014, Rockville Music)\09 - Fast Gun.wav Peak level 72.8 %
Extraction speed 1.0 X
Track quality 100.0 %
Test CRC 820E246B
Copy CRC 820E246B
Accurately ripped (confidence 4) [FD0EC781] (AR v2)
Copy OK

Track 10 Filename F:\Music\olaf_alien\Pavlov's Dog - The Pekin Tapes (2014, Rockville Music)\10 - Preludin & Fellacio In E Minor.wav Peak level 71.8 %
Extraction speed 1.1 X
Track quality 100.0 %
Test CRC 5C0434C1
Copy CRC 5C0434C1
Accurately ripped (confidence 4) [3077DAF5] (AR v2)
Copy OK

Track 11 Filename F:\Music\olaf_alien\Pavlov's Dog - The Pekin Tapes (2014, Rockville Music)\11 - Brand New Day (Demo)onus Track.wav Pre-gap length 0:00:02.47 Peak level 86.2 %
Extraction speed 1.0 X
Track quality 100.0 %
Test CRC 88E602DE
Copy CRC 88E602DE
Accurately ripped (confidence 4) [3D243E8A] (AR v2)
Copy OK

Track 12 Filename F:\Music\olaf_alien\Pavlov's Dog - The Pekin Tapes (2014, Rockville Music)\12 - Natchez Trace (Demo)onus Track.wav Peak level 71.6 %
Extraction speed 1.0 X
Track quality 100.0 %
Test CRC A61C54AE
Copy CRC A61C54AE
Accurately ripped (confidence 4) [196C577F] (AR v2)
Copy OK

Track 13 Filename F:\Music\olaf_alien\Pavlov's Dog - The Pekin Tapes (2014, Rockville Music)\13 - Fast Gun (Demo)onus Track.wav Peak level 80.8 %
Extraction speed 1.0 X
Track quality 100.0 %
Test CRC D8E8BF2D
Copy CRC D8E8BF2D
Accurately ripped (confidence 4) [84CBDEA4] (AR v2)
Copy OK

Track 14 Filename F:\Music\olaf_alien\Pavlov's Dog - The Pekin Tapes (2014, Rockville Music)\14 - I Wish It Would Rain (Demo)onus Track.wav Peak level 72.7 %
Extraction speed 1.1 X
Track quality 100.0 %
Test CRC DB9D9E76
Copy CRC DB9D9E76
Accurately ripped (confidence 4) [96A96878] (AR v2)
Copy OK

All tracks accurately ripped

No errors occurred

End of status report

==== Log checksum DDD1A74B77CAE172C563133F2DE38E450BB2199054DB89362739DCD6BFFC66C7 ====

[CUETools log; Date: 05.11.2015 17:09:03; Version: 2.1.4]
[CTDB TOCID: evtlPznQhHTx4LFdngpnXQJ.l9U-] found.
Track | CTDB Status
1 | (4/4) Accurately ripped
2 | (4/4) Accurately ripped
3 | (4/4) Accurately ripped
4 | (4/4) Accurately ripped
5 | (4/4) Accurately ripped
6 | (4/4) Accurately ripped
7 | (4/4) Accurately ripped
8 | (4/4) Accurately ripped
9 | (4/4) Accurately ripped
10 | (4/4) Accurately ripped
11 | (4/4) Accurately ripped
12 | (4/4) Accurately ripped
13 | (4/4) Accurately ripped
14 | (4/4) Accurately ripped
[AccurateRip ID: 0023e4e7-017dc7c2-c10ffe0e] found.
Track [ CRC | V2 ] Status
01 4763fa6|8cd21529 (0+5/5) Accurately ripped
02 [75a89035|683b9ed1] (0+5/5) Accurately ripped
03 [338dcb0a|9fed7269] (0+5/5) Accurately ripped
04 [7e199b69|ce79ec56] (0+5/5) Accurately ripped
05 [a59f6e25|48b31f7b] (0+5/5) Accurately ripped
06 [29781158|ef337094] (0+5/5) Accurately ripped
07 [a01cf97c|79804d56] (0+5/5) Accurately ripped
08 [2e21bb6f|c047a3f0] (0+5/5) Accurately ripped
09 [06fff41d|fd0ec781] (0+5/5) Accurately ripped
10 [284cde72|3077daf5] (0+5/5) Accurately ripped
11 [01ce36f9|3d243e8a] (0+5/5) Accurately ripped
12 [3a4b819b|196c577f] (0+5/5) Accurately ripped
13 [185f8a3a|84cbdea4] (0+5/5) Accurately ripped
14 [fa8c4177|96a96878] (0+5/5) Accurately ripped

Track Peak [ CRC32 ] [W/O NULL] [ LOG ]
-- 92,9 [65F33C33] [CB5D7394]
01 90,1 [7368686C] [C9EBB5E9] CRC32
02 86,1 [22408050] [44A9CF68] CRC32
03 83,3 [048A3A3C] [29828FAD] CRC32
04 85,2 [9BF22022] [5445BAA2] CRC32
05 79,2 [98C51266] [8BB00B69] CRC32
06 77,5 [0BB55EC5] [97100821] CRC32
07 72,7 E5EBD9B [2DB012AB] CRC32
08 92,9 [64A7FD48] [2B44705B] CRC32
09 72,8 [820E246B] [D18EF505] CRC32
10 71,8 [5C0434C1] 8442979 CRC32
11 86,2 [88E602DE] [873C3F40] CRC32
12 71,6 [A61C54AE] [7C2288FA] CRC32
13 80,8 [D8E8BF2D] [44C0B0A8] CRC32
14 72,7 [DB9D9E76] [C22CE94E] CRC32
Thanks to olaf_alien
DOWNLOAD LINKS
Buy Premium From My Links To Get Resumable Support & Max Speed & To Support Me


Links are Interchangeable - No Password - Single Extraction
Direct Download

Tags: Pavlov

Pavlov's Dog - The Pekin Tapes (2014) Download via Hotfile Rapidshare Fileserve Megaupload & FileSonic, Pavlov's Dog - The Pekin Tapes (2014) free torrent downloads included crack, serial, keygen.Pavlov's Dog - The Pekin Tapes (2014) Fast Download via Rapidshare Hotfile Fileserve Filesonic Megaupload, Pavlov's Dog - The Pekin Tapes (2014) Torrents and Emule Download or anything related.
Leave a Comment
Your Name:
E-Mail:
Add Comments:

Enter Code: