Shonen Knife - 712 (1991) [US Reissue '2005] RESTORED

Download Now


Shonen Knife - 712 (1991) [US Reissue '2005] RESTORED
Shonen Knife - 712 (1991) S Reissue '2005
FLAC+CUE+LOG or MP3 CBR 320 | Complete Scanwork | 374 or 123 MB
Expanded & Remastered 2005 | Zero Communications Ltd. / Oglio Records

712 was recorded over a three-year period and includes assists from many of their new friends. This was Shonen Knife's first release after their discovery by the rest of the world.
"Most North American fans were introduced to the ladies of Shonen Knife via the cryptically titled 712. They even toured the effort, opening up for a then-unknown Nirvana. Actually, the numeric insignia was derived by taking a contraction of seven (nana), one (ichi), and two (futatu) to create the "na-i-fu", the Japanese word for knife. The material immediately unleashes the band's tongue-in-cheek sincerity and prankster attitude on "Shonen Knife", which commences with the herald "Good morning, Shonen Knife freaks..." and dives into a repetitive four-on-the-floor sample of E.L.O.'s "Don't Bring Me Down". The following off-kilter Dadaist rap hails the arrival of this, their latest record, before reeling off a litany of their favorite musicians: "Nick Lowe, Costello, Beatles/Redd Kross, Ramones, Buzzcocks", then proudly proclaiming "Shonen Knife is a cult band!" Couched within the Gen X anthem and garage façade of "Lazybone" is the band's understated penchant for catchy choruses and power pop melodies. They are perfectly matched to guest Atsushi Shibata's forceful guitar solo. Among the other social observations are an extolling of weight loss on "Diet Run", a surreal ballad to a breakfast cereal during "Fruit Loop Dreams", as well as paeans to White Flag and Redd Kross. The latter were enthusiasts of the band, giving them positive feedback in the press. The cover of the Beatles' "Rain" sticks pretty close to the original, with guest drummer Victor Indrizzo (drums) going so far as to replicating Ringo Starr's drum fills beat-for-beat. Even more striking is their take on John Lennon's "The Luck of the Irish" featuring Redd Kross's Jeff McDonald on lead vocals that nail Lennon's weary inflections. 712 is a recommended starting point for those wishing to indulge themselves in some whimsical and thoroughly unpretentious Rock & Roll.

~ Lindsay Planer, all media guide
"


Tracklist:

01. Shonen Knife
02. Lazybone
03. Diet Run
04. Blue Oyster Cult
05. Rain
06. The Luck Of The Irish
07. My Favorite Town
08. Faith Healer
09. Redd Kross
10. White Flag
11. Superstar
12. Expo '90
13. Fruit Loop Dreams
14. The Moon World
15. Baggs
16. Lazybone (Live) [Reissue Bonus Track]
17. Blue Oyster Cult (Live) [Reissue Bonus Track]

Live bonus tracks were recorded at
Eggplant, Osaka, Japan on August 7, 1988


Exact Audio Copy V1.1 from 23. June 2015

EAC extraction logfile from 6. November 2015, 15:51

Shonen Knife / 712

Used drive : ASUS DRW-24B1ST Adapter: 1 ID: 0

Read mode : Secure
Utilize accurate stream : Yes
Defeat audio cache : Yes
Make use of C2 pointers : No

Read offset correction

: 6
Overread into Lead-In and Lead-Out : No
Fill up missing offset samples with silence : Yes
Delete leading and trailing silent blocks : No
Null samples used in CRC calculations : Yes
Used interface
: Native Win32 interface for Win NT & 2000

Used output format : Internal WAV Routines
Sample format : 44.100 Hz; 16 Bit; Stereo

TOC of the extracted CD Track | Start | Length | Start sector | End sector
--1 | 0:00.00 | 3:53.35 | 0 | 17509 2 | 3:53.35 | 2:18.50 | 17510 | 27909 3 | 6:12.10 | 3:13.40 | 27910 | 42424 4 | 9:25.50 | 2:25.00 | 42425 | 53299 5 | 11:50.50 | 3:00.23 | 53300 | 66822 6 | 14:50.73 | 2:56.20 | 66823 | 80042 7 | 17:47.18 | 2:58.32 | 80043 | 93424 8 | 20:45.50 | 3:11.43 | 93425 | 107792 9 | 23:57.18 | 2:38.02 | 107793 | 119644
10 | 26:35.20 | 1:07.73 | 119645 | 124742
11 | 27:43.18 | 2:39.40 | 124743 | 136707
12 | 30:22.58 | 2:08.07 | 136708 | 146314
13 | 32:30.65 | 1:54.58 | 146315 | 154922
14 | 34:25.48 | 2:43.45 | 154923 | 167192
15 | 37:09.18 | 3:54.12 | 167193 | 184754
16 | 41:03.30 | 2:42.67 | 184755 | 196971
17 | 43:46.22 | 2:51.68 | 196972 | 209864

Range status and errors

Selected range Filename F:\_AvaxHome__Rehabilly\SHONEN KNIFE\1991- 712 S Reissue 2005\Shonen Knife - 712 (OGL 81611-2).wav Peak level 96.8 %
Extraction speed 8.0 X
Range quality 100.0 %
Test CRC A8374513
Copy CRC A8374513
Copy OK

No errors occurred


AccurateRip summary

Track 1 cannot be verified as accurate (confidence 5) [4A24F1BD], AccurateRip returned [E300DC17] (AR v2)
Track 2 cannot be verified as accurate (confidence 5) B54E799, AccurateRip returned [1AA47A27] (AR v2)
Track 3 cannot be verified as accurate (confidence 5) [4FDF7EE4], AccurateRip returned [07766B2B] (AR v2)
Track 4 cannot be verified as accurate (confidence 5) [06557181], AccurateRip returned [A49CF825] (AR v2)
Track 5 cannot be verified as accurate (confidence 5) [E3F6CEC0], AccurateRip returned [996B74BA] (AR v2)
Track 6 cannot be verified as accurate (confidence 5) 6F8B07C, AccurateRip returned [98F044A7] (AR v2)
Track 7 cannot be verified as accurate (confidence 5) [39129B8B], AccurateRip returned [C094454E] (AR v2)
Track 8 cannot be verified as accurate (confidence 5) [24AEC900], AccurateRip returned [A372CE20] (AR v2)
Track 9 cannot be verified as accurate (confidence 5) [D09BC4DD], AccurateRip returned [098344CE] (AR v2)
Track 10 cannot be verified as accurate (confidence 5) [65512E4F], AccurateRip returned [8F99266F] (AR v2)
Track 11 cannot be verified as accurate (confidence 5) [FDDB2D5E], AccurateRip returned [662EC69D] (AR v2)
Track 12 cannot be verified as accurate (confidence 5) [811739BA], AccurateRip returned [DC179FF9] (AR v2)
Track 13 cannot be verified as accurate (confidence 5) [1DB9CF4E], AccurateRip returned [3F6F0F5D] (AR v2)
Track 14 cannot be verified as accurate (confidence 5) [06EAF8B0], AccurateRip returned [9BE7165E] (AR v2)
Track 15 cannot be verified as accurate (confidence 5) [335DFEBB], AccurateRip returned [E3C9F633] (AR v2)
Track 16 cannot be verified as accurate (confidence 5) [6A3A1133], AccurateRip returned [CCEDB0EA] (AR v2)
Track 17 cannot be verified as accurate (confidence 5) [0A767C3F], AccurateRip returned [42A305E4] (AR v2)

No tracks could be verified as accurate
You may have a different pressing from the one(s) in the database

End of status report

==== Log checksum 3270CBFF4F6978E9536D112ACFA5DAAFA8E6D23E3C2248E74A8D6C5153F0A9C1 ====

Produced by Shonen Knife
Recorded from 1988 to April 1990. Track "11" in 1986
Re-Mastered by Ohji Hayashi at Silence Audio Recording.

* Naoko Yamano - guitar, vocals
* Michie Nakatani - bass, vocals
* Atsuko Yamano - drums, backing vocals

additional musicians:
- Jeff McDonald: backing vocals
- Atsushi Shibata: guitars
- Pat Fear: guitars, backing vocals
- Noboru Yamada: saxophone
- Dave Landry, Steve McDonald, Steve Davis: bass
- Victor Indrizzo: drums, percussion

Original Release Date: July 1, 1991
US Re-Release Date: January 25, 2005
Format: Original recording remastered
Label: Oglio Records
Catalog No.: OGL 81611-2
DOWNLOAD LINKS
Buy Premium From My Links To Get Resumable Support & Max Speed & To Support Me


Links are Interchangeable - No Password - Single Extraction
Direct Download

Tags: Shonen, Reissue, RESTORED

Shonen Knife - 712 (1991) [US Reissue '2005] RESTORED Download via Hotfile Rapidshare Fileserve Megaupload & FileSonic, Shonen Knife - 712 (1991) [US Reissue '2005] RESTORED free torrent downloads included crack, serial, keygen.Shonen Knife - 712 (1991) [US Reissue '2005] RESTORED Fast Download via Rapidshare Hotfile Fileserve Filesonic Megaupload, Shonen Knife - 712 (1991) [US Reissue '2005] RESTORED Torrents and Emule Download or anything related.
Leave a Comment
Your Name:
E-Mail:
Add Comments:

Enter Code: