Chuck Berry - Rock And Roll Music: Any Old Way You Choose It (2014) [16CD Box Set] {Bear Family Records}

Download Now


Chuck Berry - Rock And Roll Music: Any Old Way You Choose It (2014) [16CD Box Set] {Bear Family Records}
Chuck Berry - Rock And Roll Music: Any Old Way You Choose It (2014) [16CD Box Set] {Bear Family Records}
EAC rip (secure mode) | FLAC (tracks)+CUE+LOG -> 6.53 Gb | MP3 @320 -> 2.89 Gb | Artwork @ 300 dpi (jpg) -> 37 Mb | 5% repair rar
© 2014 Bear Family Records | BCD 17273 PL
Rhythm & Blues / Blues / Rock & Roll / Early R&B

"Chuck Berry fanatics, your ship has come in, and it's the Queen Mary - or maybe we should call it the Queen Maybellene. As you'd expect from the Bear Family label, which specializes in gargantuan reissues, this 16-CD, 396-song box doesn't simply span Berry's career, it embraces virtually every musical note the man has ever issued. You'll find all of his released album tracks and singles, starting with an obscure 1954 recording and including everything from the Chess, Mercury and Atco labels, plus every surviving alternate take. Also here are five CDs' worth of concert performances from 1956 to 1972."

Chuck Berry - Rock And Roll Music: Any Old Way You Choose It (2014) [16CD Box Set] {Bear Family Records}

"There have been countless Chuck Berry compilations but never one like Bear Family's Rock and Roll Music: Any Old Way You Choose It, a mammoth 16-disc box containing his complete recorded works for Chess, Mercury, and Atco. Only the soundtrack to Taylor Hackford's star-studded 1987 documentary Hail! Hail! Rock 'n' Roll is missing and it isn't missed much, not in the face of this abundance. Almost everything here is previously released -- Universal not only released Chuck's complete Chess recordings as three four-disc sets on Hip-O Select in the 2000s, they did a pretty good job clearing out the vaults in the '70s and '80s -- but with a set of this size, what counts is not rarities but context. Here, that context is not the original Chess singles of the '50s and early '60s, the smashes that became standards, but rather what happened afterward, when Chuck kept working and working, churning out records for Mercury as he played with pickup bands across the land. That said, the deeply detailed recounting of his pioneering first stint at Chess -- lasting from 1954 until 1966, barring a two-year hiatus to serve a prison sentence; here, the time line is expanded by a single he cut with Joe Alexander right before he signed with the Chess brothers -- remains rich and wondrous, illustrating how quickly Berry settled into his signature groove and how many variations he found within his blend of jazz, blues, and country.

Chuck Berry - Rock And Roll Music: Any Old Way You Choose It (2014) [16CD Box Set] {Bear Family Records}


All this is familiar from the three Hip-O Select sets, but when the late-'60s recordings for Mercury are added to the picture, it becomes more apparent how Berry was eager to change with the times, adding swinging horns as a nod to the soul emerging from the South or jamming with the Steve Miller Band so he could please the crowd at the Fillmore. Berry was savvy. He knew how to change with the times, a talent that is plain on the live material here, including both dates recorded with the Motown rhythm section in Detroit in October 1963 and the Toronto Rock n Roll Revival from 1969, some BBC sessions, and cuts from the Newport Jazz Festival in 1958. On the earlier dates he's charmingly polite, but in 1963 he starts to loosen up with offhand jokes, and by 1969 he's happily leading a large audience through a dirty nursery rhyme. That schtick could play on college campuses and Chuck, alone among the original rockers, really made a play for the counterculture by recording such outlaw anthems as "Tulane," an ode to a pair of dope dealers that sounded like nothing but Chuck Berry. This box makes clear that this is one of the keys to Berry's genius: he always stood apart from the pack, so he could sell trends back to the audience, all filtered through the boogie, blues, and sliding guitar runs he loved so. He kept this up until 1979, the year he released Rock It, an underrated little record that contained "Oh What a Thrill," a song that proved he still could knock off a killer when he needed. It was the last time he needed to, however: he had already built a body of work that defined rock & roll and, in many ways, all the hopes and dreams of 20th century America. The glory of Rock and Roll Music: Any Old Way You Choose It is that it captures that work in all its incandescent glory."


Chuck Berry - Rock And Roll Music: Any Old Way You Choose It (2014) [16CD Box Set] {Bear Family Records}


Bear Family Records INFO

I'm very sorry but it's impossible to scan the book! The original ripper wrote: "Unfortunately I couldn't scan the hardbound books, You'll have to buy it to see all the rare photos."

Track Listing:
CD1: Studio 1954-1957

1. Maybellene
2. Wee Wee Hours
3. Thirty Days (To Come Back Home)
4. Together (We Will Always Be)
5. You Can't Catch Me
6. Roly Poly
7. Berry Pickin' (Instrumental)
8. (The) Down Bound Train
9. No Money Down
10. I've Changed
11. Drifting Heart
12. Brown Eyed Handsome Man
13. Roll Over Beethoven
14. Too Much Monkey Business
15. Havana Moon
16. Rock And Roll Music (Demo)
17. Untitled Instrumental
18. Deep Feeling (Instrumental)
19. School Day (Ring! Ring! Goes The Bell)
20. Lajaunda (Espaсol)
21. Blue Feeling (Instrumental)
22. Low Feeling (Instrumental)
23. How You've Changed
24. Rock And Roll Music
25. Oh Baby Doll
26. 13 Question Method
27. How High The Moon (Instrumental)
28. Maria - Joe Alexander
29. Hope These Words Will Find You Well - Joe Alexander
30. Sweet Little Sixteen (Demo)

Chuck Berry - Rock And Roll Music: Any Old Way You Choose It (2014) [16CD Box Set] {Bear Family Records}


CD2: Studio 1957-1958
1. Sweet Little Sixteen
2. Rock At The Philharmonic (Instrumental)
3. Guitar Boogie (Instrumental)
4. Night Beat (Instrumental)
5. Time Was (slow version)
6. Reelin' And Rockin'
7. Chuckwalk (Instrumental)
8. Johnny B Goode
9. Around And Around
10. Ingo (Instrumental)
11. It Don't Take But A Few Minutes
12. Blues For Hawaiians (Instrumental)
13. Beautiful Delilah
14. Vacation Time
15. 21
16. 21 Blues
17. Oh Yeah
18. Hey Pedro
19. Time Was
20. House Of Blue Lights
21. Carol
22. Jo Jo Gunne
23. Memphis Tennessee
24. Anthony Boy
25. Sweet Little Rock And Roller
26. Long Fast Jam (Instrumental)
27. Long Slow Jam (Instrumental)

CD3: Studio 1958-1960
1. Merry Christmas Baby
2. Run Rudolph Run
3. Little Queenie
4. That's My Desire
5. Do You Love Me
6. Almost Grown
7. Back In The USA
8. Fast B 6 (Instrumental)
9. Blue On Blue (Instrumental)
10. Betty Jean
11. County Line
12. Childhood Sweetheart
13. One O'Clock Jump (Instrumental)
14. I Just Want To Make Love To You
15. Broken Arrow
16. Let It Rock
17. Too Pooped To Pop
18. Say You'll Be Mine - The Ecuadors
19. Let Me Sleep Woman - The Ecuadors
20. Drifting Blues
21. I Got To Find My Baby
22. Don't You Lie To Me
23. Worried Life Blues
24. Our Little Rendezvous
25. Bye Bye Johnny
26. Run Around
27. Jaguar And Thunderbird
28. Diploma For Two
29. Little Star
30. The Way It Was Before
31. Away From You
32. Down The Road Apiece
33. Confessin' The Blues
34. Sweet Sixteen
35. Thirteen Question Method
36. Stop And Listen

Chuck Berry - Rock And Roll Music: Any Old Way You Choose It (2014) [16CD Box Set] {Bear Family Records}


CD4: Studio 1960-1964
1. I Still Got The Blues
2. I'm Just A Lucky So And So
3. Mad Lad (Instrumental)
4. Crying Steel (Instrumental)
5. Route 66 (Take 10)
6. I'm Talking About You
7. Rip It Up
8. Come On
9. Adulteen
10. The Man And The Donkey
11. Go Go Go
12. Trick Or Treat
13. Brown Eyed Handsome Man (Instrumental)
14. Brown Eyed Handsome Man
15. All Aboard
16. Nadine (Is It You?)
17. You Never Can Tell
18. The Little Girl From Central
19. (The) Things I Used To Do
20. I'm In The Danger Zone
21. I'm In The Twilight Zone
22. Fraulein
23. Lonely All The Time (Crazy Arms)
24. O Rangutang (Instrumental)
25. Big Ben (Blues)
26. (The) Promised Land
27. Brenda Lee
28. No Particular Place To Go
29. You Two
30. Liverpool Drive (Instrumental)
31. Chuck's Beat (Instrumental)
32. Bo's Beat (Instrumental)
33. Little Marie
34. Go, Bobby Soxer

CD5: Studio 1964-1965
1. Lonely School Days
2. His Daughter Caroline
3. Dear Dad
4. I Want To Be Your Driver
5. Spending Christmas (My Blue Christmas)
6. The Song Of My Love
7. Butterscotch (Instrumental)
8. After It's Over (Instrumental)
9. Why Should We End This Way
10. You Came A Long Way From St Louis
11. She Once Was Mine
12. Jamaica Farewell
13. My Little Love Light
14. I Got A Booking
15. St Louis Blues
16. Shake Rattle And Roll
17. Honey Hush
18. Wee Wee Hours (Instrumental)
19. Run Joe
20. It's My Own Business
21. One For My Baby (And One More For The Road)
22. Every Day We Rock And Roll
23. My Mustang Ford (Instrumental)
24. My Mustang Ford
25. Merrily We Rock And Roll
26. Vaya Con Dios
27. Wee Hour Blues
28. It Wasn't Me
29. Ain't That Just Like A Woman
30. Right Off Rampart Street
31. Welcome Back Pretty Baby
32. Sad Day, Long Night (Instrumental)

Chuck Berry - Rock And Roll Music: Any Old Way You Choose It (2014) [16CD Box Set] {Bear Family Records}


CD6: Studio 1966-1967
1. Ramona, Say Yes
2. Viva (Viva) Rock And Roll
3. His Daughter Caroline (Fast version)
4. Lonely School Days (Fast version)
5. Campus Cookie (Instrumental)
6. Mum's The Word
7. My Tambourine
8. Laugh And Cry
9. Maybelline
10. School Days
11. Sweet Little Sixteen
12. Johnny B Goode
13. Memphis
14. Roll Over Beethoven
15. Rock'n'Roll Music
16. Club Nitty Gritty
17. Around And Around
18. Oh Captain
19. Thirty Days
20. Back In The USA
21. Misery
22. Carol
23. Brown Eyed Handsome Man
24. Let It Rock
25. Reelin' And Rockin'
26. Almost Grown
27. Ramblin' Rose
28. Check Me Out
29. I Do Really Love You
30. Back To Memphis
31. Bring Another Drink
32. It Hurts Me Too
33. Goodnight, Well It's Time To Go
34. So Long
35. My Heart Will Always Belong To You
36. Flying Home (Instrumental)

CD7: Studio 1967-1969
1. Sweet Little Rock'n'Roller
2. Oh Baby Doll
3. I Can't Believe
4. Soul Rockin'
5. Ma Dear
6. Rock Cradle Rock
7. The Love I Lost
8. Louie To Frisco
9. I Love Her, I Love Her
10. Little Fox
11. Song Of My Love
12. Rock Cradle Rock (alt take)
13. Good Lookin' Woman
14. My Woman
15. It's Too Dark In There
16. Put Her Down
17. Concerto In B Goode (Instrumental)
18. Tulane
19. Have Mercy Judge
20. Untitled Instrumental
21. My Ding-A-Ling

Chuck Berry - Rock And Roll Music: Any Old Way You Choose It (2014) [16CD Box Set] {Bear Family Records}


CD8: Studio 1969-1972
1. Gun (Instrumental)
2. Gun (Fast) (Instrumental)
3. Gun (Slow) (Instrumental)
4. That's None Of Your Business
5. Instrumental
6. Christmas
7. I'm A Rocker
8. Flyin' Home (Instrumental)
9. Fish & Chips
10. Some People
11. My Pad (Poem)
12. Oh Louisiana
13. Festival
14. Let's Do Our Thing Together
15. Your Lick
16. Bound To Lose
17. Bordeaux In My Pirough
18. San Francisco Dues
19. My Dream (Poem)
20. Roll ‘Em Pete
21. Reelin' And Rockin'
22. My Ding-A-Ling
23. Johnny B Goode
24. Let's Boogie

CD9: Studio 1972-1974
1. Mean Old World
2. I Love You
3. I Will Not Let You Go
4. London Berry Blues (Instrumental)
5. Blues #1 (Instrumental)
6. Annie Lou
7. Rain Eyes
8. You And My Country
9. Sue Answer
10. Got It And Gone
11. A Deuce
12. Talkin' About My Buddy
13. Hello Little Girl Goodbye
14. One Sixty Nine AM (Instrumental)
15. Aimlessly Driftin'
16. Woodpecker (Instrumental)
17. Bio
18. Roll Away
19. Hi-Heel Sneakers
20. Jambalaya
21. The Song Of My Love
22. South Of The Border

Chuck Berry - Rock And Roll Music: Any Old Way You Choose It (2014) [16CD Box Set] {Bear Family Records}


CD10: Studio 1973-1974 (+ 1964)
1. I'm Just A Name
2. Too Late
3. Turn On The Houselights (Instrumental)
4. Swanee River
5. You Are My Sunshine
6. Johnny B Blues (Instrumental)
7. Dust My Broom
8. Don't You Lie To Me
9. My Babe
10. Here Today
11. I Just Want To Make Love To You
12. Rockin' (Instrumental)
13. Shake Rattle And Roll
14. Baby What You Want Me To Do
15. Chuck's Beat
16. Bo's Beat
17. Bio

CD11: Studio 1979 (+ 1960-1966)
1. I Got To Find My Baby (Stereo)
2. Bye Bye Johnny (Stereo)
3. Run Around (Stereo)
4. Diploma For Two (Stereo)
5. Down The Road Apiece (Stereo-longer fading)
6. Route 66 (Stereo, alt take)
7. I'm Talking About You (Stereo)
8. Come On (Stereo, alt take)
9. Go Go Go (Stereo)
10. Brown Eyed Handsome Man (Stereo remix)
11. Jamaica Farewell (Mono)
12. My Mustang Ford (Stereo remix)
13. It Wasn't Me (Stereo, alt take)
14. Ain't That Just Like A Woman (unfaded)
15. Ramona, Say Yes (Stereo, alt mix w/o sax)
16. Move It
17. Oh What A Thrill
18. California
19. Pass Away
20. I Need You Baby
21. If I Were
22. House Lights
23. I Never Thought
24. Havana Moon
25. Wuden't Me

Chuck Berry - Rock And Roll Music: Any Old Way You Choose It (2014) [16CD Box Set] {Bear Family Records}


CD12: On Stage 1956/1958/1963
1. Maybeline [sic]
2. Roll Over Beethoven
3. Schooldays (School Day)
4. No Money Down
5. Sweet Little Sixteen
6. Johnny Be Goode
7. First Set Introduction
8. Guitar Boogie (Instrumental)
9. Johnny B Goode
10. Sweet Little Sixteen
11. School Day
12. Memphis
13. Maybellene
14. Rock And Roll Music
15. Dust My Broom
16. Instrumental Boogie (Instrumental)
17. Too Much Monkey Business
18. Johnny B Goode

CD13: On Stage 1963
1. Rock At The Philharmonic (Instrumental)
2. Memphis
3. Guitar Boogie (Instrumental)
4. Let It Rock
5. Wee Wee Hours
6. Goodnight Sweetheart/Johnnie B Goode/Let It Rock/Rock & Roll Music Medley
7. Introduction Walled Lake Casino, Detroit (October 26, 1963) first set
8. Guitar Boogie (Instrumental)
9. Let It Rock
10. Almost Grown
11. Chuck Berry Dialogue #1
12. Memphis
13. Johnny B Goode
14. Introduction Walled Lake Casino, Detroit (October 26, 1963) second set
15. Instrumental Boogie
16. Sweet Little Sixteen
17. Wee Wee Hours
18. Chuck Berry Dialogue #2
19. Maybellene
20. Goodnight Sweetheart/Johnny B Goode/Let It Rock/School Day Medley

Chuck Berry - Rock And Roll Music: Any Old Way You Choose It (2014) [16CD Box Set] {Bear Family Records}


CD14: On Stage 1967
1. Fillmore Auditorium Introduction
2. Rockin' At The Fillmore (Instrumental)
3. Everyday I Have The Blues
4. CC Rider
5. Driftin' Blues
6. Feelin' It (Instrumental)
7. Flying Home (Instrumental)
8. I'm Your Hoochie Coochie Man
9. It Hurts Me Too
10. Good Morning Little Schoolgirl
11. Fillmore Blues (Instrumental)
12. Wee Baby Blues
13. Bring Another Drink
14. Worried Life Blues
15. Reelin' And Rockin'
16. My Ding-A-Ling
17. Johnny B Goode

CD15: On Stage 1969
1. Rock And Roll Music
2. Nadine
3. School Day (Long Live Rock And Roll)
4. (In The) Wee Wee Hours
5. Johnny B Goode/Carol/Promised Land
6. Hoochie Coochie Man
7. Memphis Tennessee
8. Too Much Monkey Business
9. Reelin' And Rockin'
10. Sweet Little Sixteen
11. My Ding-A-Ling
12. Bonsoir Cherie
13. Johnny B Goode
14. Maybelline

Chuck Berry - Rock And Roll Music: Any Old Way You Choose It (2014) [16CD Box Set] {Bear Family Records}


CD16: On Stage 1972, plus
1. Lanchester Arts Festival Introduction
2. Roll Over Beethoven
3. Nadine
4. Sweet Little Sixteen
5. Instrumental (testing)
6. Roll ‘Em Pete
7. Around And Around
8. It Hurts Me Too
9. Promised Land
10. Reelin' And Rockin'
11. My Ding-A-Ling
12. Johnny B Goode
13. South Of The Border
14. School Days
15. Memphis Tennessee
16. Sweet Little Sixteen
17. Interview
18. Nadine
19. Johnny B Goode
20. Interview
21. Dr. Pepper Commercial
22. Reelin' And Rockin'/Roll Over Beethoven

Chuck Berry - Rock And Roll Music: Any Old Way You Choose It (2014) [16CD Box Set] {Bear Family Records}



Exact Audio Copy V1.0 beta 3 from 29. August 2011

EAC extraction logfile from 15. November 2014, 22:44

Chuck Berry / Rock And Roll Music: Any Old Way You Choose It (Disc 1)

Used drive : TSSTcorpCDDVDW SH-224BB Adapter: 0 ID: 0

Read mode : Secure
Utilize accurate stream : Yes
Defeat audio cache : Yes
Make use of C2 pointers : No

Read offset correction

: 6
Overread into Lead-In and Lead-Out : No
Fill up missing offset samples with silence : Yes
Delete leading and trailing silent blocks : No
Null samples used in CRC calculations : Yes
Used interface
: Native Win32 interface for Win NT & 2000
Gap handling
: Appended to previous track

Used output format : User Defined Encoder
Selected bitrate : 768 kBit/s
Quality : High
Add ID3 tag : No
Command line compressor : C:\Program Files (x86)\Exact Audio Copy\FLAC\FLAC.EXE
Additional command line options : -8 -V -T "ARTIST=%artist%" -T "TITLE=%title%" -T "ALBUM=%albumtitle%" -T "DATE=%year%" -T "TRACKNUMBER=%tracknr%" -T "TOTALTRACKS=%numtracks%" -T "GENRE=%genre%" -T "ALBUMARTIST=%albumartist%" -T "ALBUM ARTIST=%albumartist%" -T "COMMENT=EAC Secure Mode, Test & Copy, AccurateRip, FLAC -8" %source%

TOC of the extracted CD Track | Start | Length | Start sector | End sector
--1 | 0:00.00 | 2:22.04 | 0 | 10653 2 | 2:22.04 | 3:04.66 | 10654 | 24519 3 | 5:26.70 | 2:24.38 | 24520 | 35357 4 | 7:51.33 | 2:36.70 | 35358 | 47127 5 | 10:28.28 | 2:43.65 | 47128 | 59417 6 | 13:12.18 | 2:50.36 | 59418 | 72203 7 | 16:02.54 | 2:32.02 | 72204 | 83605 8 | 18:34.56 | 2:50.60 | 83606 | 96415 9 | 21:25.41 | 2:58.47 | 96416 | 109812
10 | 24:24.13 | 3:05.55 | 109813 | 123742
11 | 27:29.68 | 2:49.28 | 123743 | 136445
12 | 30:19.21 | 2:17.63 | 136446 | 146783
13 | 32:37.09 | 2:24.50 | 146784 | 157633
14 | 35:01.59 | 2:55.47 | 157634 | 170805
15 | 37:57.31 | 3:08.24 | 170806 | 184929
16 | 41:05.55 | 2:40.60 | 184930 | 196989
17 | 43:46.40 | 2:23.18 | 196990 | 207732
18 | 46:09.58 | 2:20.38 | 207733 | 218270
19 | 48:30.21 | 2:42.36 | 218271 | 230456
20 | 51:12.57 | 3:13.08 | 230457 | 244939
21 | 54:25.65 | 3:01.67 | 244940 | 258581
22 | 57:27.57 | 3:09.66 | 258582 | 272822
23 | 60:37.48 | 2:48.11 | 272823 | 285433
24 | 63:25.59 | 2:32.61 | 285434 | 296894
25 | 65:58.45 | 2:38.25 | 296895 | 308769
26 | 68:36.70 | 2:40.64 | 308770 | 320833
27 | 71:17.59 | 3:09.39 | 320834 | 335047
28 | 74:27.23 | 2:42.15 | 335048 | 347212
29 | 77:09.38 | 2:40.00 | 347213 | 359212
30 | 79:49.38 | 3:11.33 | 359213 | 373570

Track 1 Filename C:\Rips\Chuck Berry - Rock And Roll Music Any Old Way You Choose It (2014) [FLAC]\CD1\01 - Maybellene.wav Pre-gap length 0:00:02.00 Peak level 96.6 %
Extraction speed 3.1 X
Track quality 99.9 %
Test CRC 1791DB15
Copy CRC 1791DB15
Accurately ripped (confidence 1) [FCEC9E65] (AR v2)
Copy OK

Track 2 Filename C:\Rips\Chuck Berry - Rock And Roll Music Any Old Way You Choose It (2014) [FLAC]\CD1\02 - Wee Wee Hours.wav Pre-gap length 0:00:02.00 Peak level 96.6 %
Extraction speed 4.7 X
Track quality 100.0 %
Test CRC 1FB1317C
Copy CRC 1FB1317C
Accurately ripped (confidence 1) [3C34E2A2] (AR v2)
Copy OK

Track 3 Filename C:\Rips\Chuck Berry - Rock And Roll Music Any Old Way You Choose It (2014) [FLAC]\CD1\03 - Thirty Days (To Come Back Home).wav Pre-gap length 0:00:02.00 Peak level 96.6 %
Extraction speed 4.8 X
Track quality 100.0 %
Test CRC BC378001
Copy CRC BC378001
Accurately ripped (confidence 1) [42AC3D3A] (AR v2)
Copy OK

Track 4 Filename C:\Rips\Chuck Berry - Rock And Roll Music Any Old Way You Choose It (2014) [FLAC]\CD1\04 - Together (We Will Always Be).wav Pre-gap length 0:00:02.00 Peak level 96.6 %
Extraction speed 5.1 X
Track quality 100.0 %
Test CRC DB14A6D8
Copy CRC DB14A6D8
Accurately ripped (confidence 1) [E69209DB] (AR v2)
Copy OK

Track 5 Filename C:\Rips\Chuck Berry - Rock And Roll Music Any Old Way You Choose It (2014) [FLAC]\CD1\05 - You Can't Catch Me.wav Pre-gap length 0:00:02.00 Peak level 96.6 %
Extraction speed 5.3 X
Track quality 100.0 %
Test CRC D44A3031
Copy CRC D44A3031
Accurately ripped (confidence 1) [F51378A8] (AR v2)
Copy OK

Track 6 Filename C:\Rips\Chuck Berry - Rock And Roll Music Any Old Way You Choose It (2014) [FLAC]\CD1\06 - Roly Poly.wav Pre-gap length 0:00:02.00 Peak level 96.6 %
Extraction speed 5.6 X
Track quality 100.0 %
Test CRC 19AE8C5A
Copy CRC 19AE8C5A
Accurately ripped (confidence 1) [52490465] (AR v2)
Copy OK

Track 7 Filename C:\Rips\Chuck Berry - Rock And Roll Music Any Old Way You Choose It (2014) [FLAC]\CD1\07 - Berry Pickin' (instrumental).wav Pre-gap length 0:00:02.00 Peak level 96.6 %
Extraction speed 4.2 X
Track quality 99.9 %
Test CRC 56226795
Copy CRC 56226795
Accurately ripped (confidence 1) [9F79C7AC] (AR v2)
Copy OK

Track 8 Filename C:\Rips\Chuck Berry - Rock And Roll Music Any Old Way You Choose It (2014) [FLAC]\CD1\08 - (The) Down Bound Train.wav Pre-gap length 0:00:02.00 Peak level 96.6 %
Extraction speed 5.9 X
Track quality 100.0 %
Test CRC 8763B109
Copy CRC 8763B109
Accurately ripped (confidence 1) [24E0BE40] (AR v2)
Copy OK

Track 9 Filename C:\Rips\Chuck Berry - Rock And Roll Music Any Old Way You Choose It (2014) [FLAC]\CD1\09 - No Money Down.wav Pre-gap length 0:00:02.00 Peak level 96.6 %
Extraction speed 4.7 X
Track quality 99.9 %
Test CRC 1ED3D1B2
Copy CRC 1ED3D1B2
Accurately ripped (confidence 1) [C8B7D59A] (AR v2)
Copy OK

Track 10 Filename C:\Rips\Chuck Berry - Rock And Roll Music Any Old Way You Choose It (2014) [FLAC]\CD1\10 - I've Changed.wav Pre-gap length 0:00:02.00 Peak level 96.6 %
Extraction speed 6.5 X
Track quality 100.0 %
Test CRC A9786547
Copy CRC A9786547
Accurately ripped (confidence 1) [F3AF1A63] (AR v2)
Copy OK

Track 11 Filename C:\Rips\Chuck Berry - Rock And Roll Music Any Old Way You Choose It (2014) [FLAC]\CD1\11 - Drifting Heart.wav Pre-gap length 0:00:02.00 Peak level 96.6 %
Extraction speed 6.5 X
Track quality 100.0 %
Test CRC 2487C7B8
Copy CRC 2487C7B8
Accurately ripped (confidence 1) [3022B452] (AR v2)
Copy OK

Track 12 Filename C:\Rips\Chuck Berry - Rock And Roll Music Any Old Way You Choose It (2014) [FLAC]\CD1\12 - Brown Eyed Handsome Man.wav Pre-gap length 0:00:02.00 Peak level 75.4 %
Extraction speed 6.4 X
Track quality 100.0 %
Test CRC DCB3BC32
Copy CRC DCB3BC32
Accurately ripped (confidence 1) [16648B30] (AR v2)
Copy OK

Track 13 Filename C:\Rips\Chuck Berry - Rock And Roll Music Any Old Way You Choose It (2014) [FLAC]\CD1\13 - Roll Over Beethoven.wav Pre-gap length 0:00:02.00 Peak level 85.0 %
Extraction speed 6.6 X
Track quality 100.0 %
Test CRC 3D1CA635
Copy CRC 3D1CA635
Accurately ripped (confidence 1) [7A6B15CA] (AR v2)
Copy OK

Track 14 Filename C:\Rips\Chuck Berry - Rock And Roll Music Any Old Way You Choose It (2014) [FLAC]\CD1\14 - Too Much Monkey Business.wav Pre-gap length 0:00:02.00 Peak level 96.6 %
Extraction speed 5.2 X
Track quality 99.9 %
Test CRC C857D485
Copy CRC C857D485
Accurately ripped (confidence 1) [1D20D1B1] (AR v2)
Copy OK

Track 15 Filename C:\Rips\Chuck Berry - Rock And Roll Music Any Old Way You Choose It (2014) [FLAC]\CD1\15 - Havana Moon.wav Pre-gap length 0:00:02.00 Peak level 96.6 %
Extraction speed 7.2 X
Track quality 100.0 %
Test CRC 06ADE2C0
Copy CRC 06ADE2C0
Accurately ripped (confidence 1) [4E612A03] (AR v2)
Copy OK

Track 16 Filename C:\Rips\Chuck Berry - Rock And Roll Music Any Old Way You Choose It (2014) [FLAC]\CD1\16 - Rock And Roll Music (demo).wav Pre-gap length 0:00:02.00 Peak level 96.2 %
Extraction speed 7.0 X
Track quality 100.0 %
Test CRC 0BCEB875
Copy CRC 0BCEB875
Accurately ripped (confidence 1) [64F343BC] (AR v2)
Copy OK

Track 17 Filename C:\Rips\Chuck Berry - Rock And Roll Music Any Old Way You Choose It (2014) [FLAC]\CD1\17 - Untitled Instrumental.wav Pre-gap length 0:00:02.00 Peak level 96.6 %
Extraction speed 7.0 X
Track quality 100.0 %
Test CRC 8D6F4B4A
Copy CRC 8D6F4B4A
Accurately ripped (confidence 1) [8064196B] (AR v2)
Copy OK

Track 18 Filename C:\Rips\Chuck Berry - Rock And Roll Music Any Old Way You Choose It (2014) [FLAC]\CD1\18 - Deep Feeling (instrumental).wav Pre-gap length 0:00:02.00 Peak level 96.6 %
Extraction speed 7.2 X
Track quality 100.0 %
Test CRC 1DC9C018
Copy CRC 1DC9C018
Accurately ripped (confidence 1) [D5809DC9] (AR v2)
Copy OK

Track 19 Filename C:\Rips\Chuck Berry - Rock And Roll Music Any Old Way You Choose It (2014) [FLAC]\CD1\19 - School Day (Ring! Ring! Goes The Bell).wav Pre-gap length 0:00:02.00 Peak level 96.6 %
Extraction speed 7.5 X
Track quality 100.0 %
Test CRC E53B8153
Copy CRC E53B8153
Accurately ripped (confidence 1) [327E5BF9] (AR v2)
Copy OK

Track 20 Filename C:\Rips\Chuck Berry - Rock And Roll Music Any Old Way You Choose It (2014) [FLAC]\CD1\20 - Lajaunda (Espanol).wav Pre-gap length 0:00:02.00 Peak level 96.5 %
Extraction speed 7.8 X
Track quality 100.0 %
Test CRC 68068198
Copy CRC 68068198
Accurately ripped (confidence 1) [3331D165] (AR v2)
Copy OK

Track 21 Filename C:\Rips\Chuck Berry - Rock And Roll Music Any Old Way You Choose It (2014) [FLAC]\CD1\21 - Blue Feeling (instrumental).wav Pre-gap length 0:00:02.00 Peak level 96.6 %
Extraction speed 6.0 X
Track quality 99.9 %
Test CRC 20212D81
Copy CRC 20212D81
Accurately ripped (confidence 1) [FC626AF2] (AR v2)
Copy OK

Track 22 Filename C:\Rips\Chuck Berry - Rock And Roll Music Any Old Way You Choose It (2014) [FLAC]\CD1\22 - Low Feeling (instrumental).wav Pre-gap length 0:00:01.74 Peak level 96.5 %
Extraction speed 6.2 X
Track quality 99.9 %
Test CRC C3D20571
Copy CRC C3D20571
Accurately ripped (confidence 1) [3A854F68] (AR v2)
Copy OK

Track 23 Filename C:\Rips\Chuck Berry - Rock And Roll Music Any Old Way You Choose It (2014) [FLAC]\CD1\23 - How You've Changed.wav Pre-gap length 0:00:02.00 Peak level 96.5 %
Extraction speed 8.1 X
Track quality 100.0 %
Test CRC FD272F33
Copy CRC FD272F33
Accurately ripped (confidence 1) [35415C5A] (AR v2)
Copy OK

Track 24 Filename C:\Rips\Chuck Berry - Rock And Roll Music Any Old Way You Choose It (2014) [FLAC]\CD1\24 - Rock And Roll Music.wav Pre-gap length 0:00:02.00 Peak level 96.5 %
Extraction speed 8.1 X
Track quality 100.0 %
Test CRC DE055907
Copy CRC DE055907
Accurately ripped (confidence 1) [E3AB4517] (AR v2)
Copy OK

Track 25 Filename C:\Rips\Chuck Berry - Rock And Roll Music Any Old Way You Choose It (2014) [FLAC]\CD1\25 - Oh Baby Doll.wav Pre-gap length 0:00:02.00 Peak level 86.9 %
Extraction speed 6.1 X
Track quality 99.9 %
Test CRC 1A83213B
Copy CRC 1A83213B
Accurately ripped (confidence 1) [DD6F496A] (AR v2)
Copy OK

Track 26 Filename C:\Rips\Chuck Berry - Rock And Roll Music Any Old Way You Choose It (2014) [FLAC]\CD1\26 - 13 Question Method.wav Pre-gap length 0:00:02.00 Peak level 95.0 %
Extraction speed 8.4 X
Track quality 100.0 %
Test CRC EE45F22F
Copy CRC EE45F22F
Accurately ripped (confidence 1) [2544974E] (AR v2)
Copy OK

Track 27 Filename C:\Rips\Chuck Berry - Rock And Roll Music Any Old Way You Choose It (2014) [FLAC]\CD1\27 - How High The Moon (instrumental).wav Pre-gap length 0:00:02.00 Peak level 96.6 %
Extraction speed 8.7 X
Track quality 100.0 %
Test CRC 70114892
Copy CRC 70114892
Accurately ripped (confidence 1) [744B20D9] (AR v2)
Copy OK

Track 28 Filename C:\Rips\Chuck Berry - Rock And Roll Music Any Old Way You Choose It (2014) [FLAC]\CD1\28 - Oh Maria.wav Pre-gap length 0:00:02.00 Peak level 96.5 %
Extraction speed 8.6 X
Track quality 100.0 %
Test CRC 0576ACC2
Copy CRC 0576ACC2
Accurately ripped (confidence 1) [822F682A] (AR v2)
Copy OK

Track 29 Filename C:\Rips\Chuck Berry - Rock And Roll Music Any Old Way You Choose It (2014) [FLAC]\CD1\29 - I Hope These Words Will Find You Well.wav Pre-gap length 0:00:02.00 Peak level 96.5 %
Extraction speed 6.4 X
Track quality 99.9 %
Test CRC 6727538F
Copy CRC 6727538F
Accurately ripped (confidence 1) [F81056F7] (AR v2)
Copy OK

Track 30 Filename C:\Rips\Chuck Berry - Rock And Roll Music Any Old Way You Choose It (2014) [FLAC]\CD1\30 - Sweet Little Sixteen (demo).wav Pre-gap length 0:00:01.73 Peak level 96.6 %
Extraction speed 9.1 X
Track quality 100.0 %
Test CRC 3A0B4F53
Copy CRC 3A0B4F53
Accurately ripped (confidence 1) [7D617249] (AR v2)
Copy OK

All tracks accurately ripped

No errors occurred

End of status report

==== Log checksum 1ACA2092C7F8779336B685964380F4A1F37E99D2475AA4E733BB5ABE3AC11951 ====

Exact Audio Copy V1.0 beta 3 from 29. August 2011

EAC extraction logfile from 15. November 2014, 23:39

Chuck Berry / Rock And Roll Music: Any Old Way You Choose It (Disc 2)

Used drive : TSSTcorpCDDVDW SH-224BB Adapter: 0 ID: 0

Read mode : Secure
Utilize accurate stream : Yes
Defeat audio cache : Yes
Make use of C2 pointers : No

Read offset correction

: 6
Overread into Lead-In and Lead-Out : No
Fill up missing offset samples with silence : Yes
Delete leading and trailing silent blocks : No
Null samples used in CRC calculations : Yes
Used interface
: Native Win32 interface for Win NT & 2000
Gap handling
: Appended to previous track

Used output format : User Defined Encoder
Selected bitrate : 768 kBit/s
Quality : High
Add ID3 tag : No
Command line compressor : C:\Program Files (x86)\Exact Audio Copy\FLAC\FLAC.EXE
Additional command line options : -8 -V -T "ARTIST=%artist%" -T "TITLE=%title%" -T "ALBUM=%albumtitle%" -T "DATE=%year%" -T "TRACKNUMBER=%tracknr%" -T "TOTALTRACKS=%numtracks%" -T "GENRE=%genre%" -T "ALBUMARTIST=%albumartist%" -T "ALBUM ARTIST=%albumartist%" -T "COMMENT=EAC Secure Mode, Test & Copy, AccurateRip, FLAC -8" %source%

TOC of the extracted CD Track | Start | Length | Start sector | End sector
--1 | 0:00.00 | 3:01.68 | 0 | 13642 2 | 3:01.68 | 3:23.35 | 13643 | 28902 3 | 6:25.28 | 2:20.35 | 28903 | 39437 4 | 8:45.63 | 2:44.46 | 39438 | 51783 5 | 11:30.34 | 2:02.37 | 51784 | 60970 6 | 13:32.71 | 3:16.37 | 60971 | 75707 7 | 16:49.33 | 2:27.69 | 75708 | 86801 8 | 19:17.27 | 2:41.03 | 86802 | 98879 9 | 21:58.30 | 2:43.10 | 98880 | 111114
10 | 24:41.40 | 2:29.14 | 111115 | 122303
11 | 27:10.54 | 2:28.53 | 122304 | 133456
12 | 29:39.32 | 3:25.18 | 133457 | 148849
13 | 33:04.50 | 2:09.69 | 148850 | 158593
14 | 35:14.44 | 2:54.25 | 158594 | 171668
15 | 38:08.69 | 2:27.50 | 171669 | 182743
16 | 40:36.44 | 2:11.73 | 182744 | 192641
17 | 42:48.42 | 2:35.36 | 192642 | 204302
18 | 45:24.03 | 1:57.08 | 204303 | 213085
19 | 47:21.11 | 2:28.65 | 213086 | 224250
20 | 49:50.01 | 2:28.15 | 224251 | 235365
21 | 52:18.16 | 2:49.70 | 235366 | 248110
22 | 55:08.11 | 2:46.48 | 248111 | 260608
23 | 57:54.59 | 2:14.04 | 260609 | 270662
24 | 60:08.63 | 1:54.30 | 270663 | 279242
25 | 62:03.18 | 2:23.04 | 279243 | 289971
26 | 64:26.22 | 11:33.44 | 289972 | 341990
27 | 75:59.66 | 11:11.48 | 341991 | 392363

Track 1 Filename C:\Rips\Chuck Berry - Rock And Roll Music Any Old Way You Choose It (2014) [FLAC]\CD2\01 - Sweet Little Sixteen.wav Pre-gap length 0:00:02.00 Peak level 96.5 %
Extraction speed 3.5 X
Track quality 99.9 %
Test CRC 233B1259
Copy CRC 233B1259
Accurately ripped (confidence 1) [95B3FF6A] (AR v2)
Copy OK

Track 2 Filename C:\Rips\Chuck Berry - Rock And Roll Music Any Old Way You Choose It (2014) [FLAC]\CD2\02 - Rock At The Philharmonic (instrumental).wav Pre-gap length 0:00:02.00 Peak level 96.6 %
Extraction speed 5.0 X
Track quality 100.0 %
Test CRC 1804DB63
Copy CRC 1804DB63
Accurately ripped (confidence 1) [A255C362] (AR v2)
Copy OK

Track 3 Filename C:\Rips\Chuck Berry - Rock And Roll Music Any Old Way You Choose It (2014) [FLAC]\CD2\03 - Guitar Boogie (instrumental).wav Pre-gap length 0:00:02.00 Peak level 96.6 %
Extraction speed 4.9 X
Track quality 100.0 %
Test CRC 40204428
Copy CRC 40204428
Accurately ripped (confidence 1) [A51DB6CD] (AR v2)
Copy OK

Track 4 Filename C:\Rips\Chuck Berry - Rock And Roll Music Any Old Way You Choose It (2014) [FLAC]\CD2\04 - Night Beat (instrumental).wav Pre-gap length 0:00:02.00 Peak level 96.6 %
Extraction speed 5.3 X
Track quality 100.0 %
Test CRC 3BEA1302
Copy CRC 3BEA1302
Accurately ripped (confidence 1) [823059F1] (AR v2)
Copy OK

Track 5 Filename C:\Rips\Chuck Berry - Rock And Roll Music Any Old Way You Choose It (2014) [FLAC]\CD2\05 - Time Was (slow version).wav Pre-gap length 0:00:02.00 Peak level 96.5 %
Extraction speed 3.6 X
Track quality 99.9 %
Test CRC 99D2B0F2
Copy CRC 99D2B0F2
Accurately ripped (confidence 1) [9C4F4631] (AR v2)
Copy OK

Track 6 Filename C:\Rips\Chuck Berry - Rock And Roll Music Any Old Way You Choose It (2014) [FLAC]\CD2\06 - Reelin' And Rockin'.wav Pre-gap length 0:00:02.00 Peak level 96.6 %
Extraction speed 5.8 X
Track quality 100.0 %
Test CRC E898E6BB
Copy CRC E898E6BB
Accurately ripped (confidence 1) [AFDE9189] (AR v2)
Copy OK

Track 7 Filename C:\Rips\Chuck Berry - Rock And Roll Music Any Old Way You Choose It (2014) [FLAC]\CD2\07 - Chuckwalk (instrumental).wav Pre-gap length 0:00:02.00 Peak level 96.6 %
Extraction speed 5.7 X
Track quality 100.0 %
Test CRC FDFACCFA
Copy CRC FDFACCFA
Accurately ripped (confidence 1) [878A7EED] (AR v2)
Copy OK

Track 8 Filename C:\Rips\Chuck Berry - Rock And Roll Music Any Old Way You Choose It (2014) [FLAC]\CD2\08 - Johnny B. Goode.wav Pre-gap length 0:00:02.00 Peak level 96.6 %
Extraction speed 5.9 X
Track quality 100.0 %
Test CRC 238F3845
Copy CRC 238F3845
Accurately ripped (confidence 1) FE54C57 (AR v2)
Copy OK

Track 9 Filename C:\Rips\Chuck Berry - Rock And Roll Music Any Old Way You Choose It (2014) [FLAC]\CD2\09 - Around And Around.wav Pre-gap length 0:00:02.00 Peak level 96.6 %
Extraction speed 6.1 X
Track quality 100.0 %
Test CRC 944FCC50
Copy CRC 944FCC50
Accurately ripped (confidence 1) [12C84EAC] (AR v2)
Copy OK

Track 10 Filename C:\Rips\Chuck Berry - Rock And Roll Music Any Old Way You Choose It (2014) [FLAC]\CD2\10 - Ingo (instrumental).wav Pre-gap length 0:00:02.00 Peak level 96.6 %
Extraction speed 6.2 X
Track quality 100.0 %
Test CRC D6764F04
Copy CRC D6764F04
Accurately ripped (confidence 1) [838B142C] (AR v2)
Copy OK

Track 11 Filename C:\Rips\Chuck Berry - Rock And Roll Music Any Old Way You Choose It (2014) [FLAC]\CD2\11 - It Don't Take But A Few Minutes.wav Pre-gap length 0:00:02.00 Peak level 96.6 %
Extraction speed 4.7 X
Track quality 99.9 %
Test CRC 43ADAE2D
Copy CRC 43ADAE2D
Accurately ripped (confidence 1) [44992B5A] (AR v2)
Copy OK

Track 12 Filename C:\Rips\Chuck Berry - Rock And Roll Music Any Old Way You Choose It (2014) [FLAC]\CD2\12 - Blues For Hawaiians (instrumental).wav Pre-gap length 0:00:02.00 Peak level 96.4 %
Extraction speed 7.0 X
Track quality 100.0 %
Test CRC A3406916
Copy CRC A3406916
Accurately ripped (confidence 1) [536CED98] (AR v2)
Copy OK

Track 13 Filename C:\Rips\Chuck Berry - Rock And Roll Music Any Old Way You Choose It (2014) [FLAC]\CD2\13 - Beautiful Delilah.wav Pre-gap length 0:00:02.00 Peak level 96.6 %
Extraction speed 6.5 X
Track quality 100.0 %
Test CRC 0FECD358
Copy CRC 0FECD358
Accurately ripped (confidence 1) [02B21B4D] (AR v2)
Copy OK

Track 14 Filename C:\Rips\Chuck Berry - Rock And Roll Music Any Old Way You Choose It (2014) [FLAC]\CD2\14 - Vacation Time.wav Pre-gap length 0:00:02.00 Peak level 96.5 %
Extraction speed 7.1 X
Track quality 100.0 %
Test CRC DF7D6876
Copy CRC DF7D6876
Accurately ripped (confidence 1) [0DC6D64D] (AR v2)
Copy OK

Track 15 Filename C:\Rips\Chuck Berry - Rock And Roll Music Any Old Way You Choose It (2014) [FLAC]\CD2\15 - 21.wav Pre-gap length 0:00:02.00 Peak level 96.6 %
Extraction speed 6.9 X
Track quality 100.0 %
Test CRC 4563E37E
Copy CRC 4563E37E
Accurately ripped (confidence 1) [214DCC95] (AR v2)
Copy OK

Track 16 Filename C:\Rips\Chuck Berry - Rock And Roll Music Any Old Way You Choose It (2014) [FLAC]\CD2\16 - 21 Blues.wav Pre-gap length 0:00:02.00 Peak level 95.9 %
Extraction speed 6.9 X
Track quality 100.0 %
Test CRC 1D0D00EB
Copy CRC 1D0D00EB
Accurately ripped (confidence 1) 9A646D9 (AR v2)
Copy OK

Track 17 Filename C:\Rips\Chuck Berry - Rock And Roll Music Any Old Way You Choose It (2014) [FLAC]\CD2\17 - Oh Yeah.wav Pre-gap length 0:00:02.00 Peak level 96.6 %
Extraction speed 7.2 X
Track quality 100.0 %
Test CRC 66578F48
Copy CRC 66578F48
Accurately ripped (confidence 1) [9AF6CAFD] (AR v2)
Copy OK

Track 18 Filename C:\Rips\Chuck Berry - Rock And Roll Music Any Old Way You Choose It (2014) [FLAC]\CD2\18 - Hey Pedro.wav Pre-gap length 0:00:02.00 Peak level 96.5 %
Extraction speed 6.9 X
Track quality 100.0 %
Test CRC 9AF05B99
Copy CRC 9AF05B99
Accurately ripped (confidence 1) [3B93F7DA] (AR v2)
Copy OK

Track 19 Filename C:\Rips\Chuck Berry - Rock And Roll Music Any Old Way You Choose It (2014) [FLAC]\CD2\19 - Time Was.wav Pre-gap length 0:00:02.00 Peak level 96.6 %
Extraction speed 7.4 X
Track quality 100.0 %
Test CRC D2BE9833
Copy CRC D2BE9833
Accurately ripped (confidence 1) [6A04A7AA] (AR v2)
Copy OK

Track 20 Filename C:\Rips\Chuck Berry - Rock And Roll Music Any Old Way You Choose It (2014) [FLAC]\CD2\20 - House Of Blue Lights.wav Pre-gap length 0:00:02.00 Peak level 96.6 %
Extraction speed 7.4 X
Track quality 100.0 %
Test CRC DE9947C1
Copy CRC DE9947C1
Accurately ripped (confidence 1) [507A8C12] (AR v2)
Copy OK

Track 21 Filename C:\Rips\Chuck Berry - Rock And Roll Music Any Old Way You Choose It (2014) [FLAC]\CD2\21 - Carol.wav Pre-gap length 0:00:01.74 Peak level 96.5 %
Extraction speed 7.9 X
Track quality 100.0 %
Test CRC 0B62FF94
Copy CRC 0B62FF94
Accurately ripped (confidence 1) [AD98E66C] (AR v2)
Copy OK

Track 22 Filename C:\Rips\Chuck Berry - Rock And Roll Music Any Old Way You Choose It (2014) [FLAC]\CD2\22 - Jo Jo Gunne.wav Pre-gap length 0:00:02.00 Peak level 96.6 %
Extraction speed 5.9 X
Track quality 99.9 %
Test CRC 32658414
Copy CRC 32658414
Accurately ripped (confidence 1) [EDE22D6B] (AR v2)
Copy OK

Track 23 Filename C:\Rips\Chuck Berry - Rock And Roll Music Any Old Way You Choose It (2014) [FLAC]\CD2\23 - Memphis Tennessee.wav Pre-gap length 0:00:02.00 Peak level 96.5 %
Extraction speed 7.7 X
Track quality 100.0 %
Test CRC CD06BF1B
Copy CRC CD06BF1B
Accurately ripped (confidence 1) [69CB6A1E] (AR v2)
Copy OK

Track 24 Filename C:\Rips\Chuck Berry - Rock And Roll Music Any Old Way You Choose It (2014) [FLAC]\CD2\24 - Anthony Boy.wav Pre-gap length 0:00:02.00 Peak level 96.5 %
Extraction speed 7.4 X
Track quality 100.0 %
Test CRC 58CC0617
Copy CRC 58CC0617
Accurately ripped (confidence 1) [6A366D07] (AR v2)
Copy OK

Track 25 Filename C:\Rips\Chuck Berry - Rock And Roll Music Any Old Way You Choose It (2014) [FLAC]\CD2\25 - Sweet Little Rock And Roller.wav Pre-gap length 0:00:02.00 Peak level 95.7 %
Extraction speed 5.7 X
Track quality 99.9 %
Test CRC A66A0626
Copy CRC A66A0626
Accurately ripped (confidence 1) [E213373D] (AR v2)
Copy OK

Track 26 Filename C:\Rips\Chuck Berry - Rock And Roll Music Any Old Way You Choose It (2014) [FLAC]\CD2\26 - Long Fast Jam (instrumental).wav Pre-gap length 0:00:02.00 Peak level 90.5 %
Extraction speed 10.0 X
Track quality 100.0 %
Test CRC 5218C543
Copy CRC 5218C543
Accurately ripped (confidence 1) [4CAE751C] (AR v2)
Copy OK

Track 27 Filename C:\Rips\Chuck Berry - Rock And Roll Music Any Old Way You Choose It (2014) [FLAC]\CD2\27 - Long Slow Jam (instrumental).wav Pre-gap length 0:00:02.00 Peak level 96.6 %
Extraction speed 9.5 X
Track quality 99.9 %
Test CRC 1AE06A10
Copy CRC 1AE06A10
Accurately ripped (confidence 1) [656ABFFE] (AR v2)
Copy OK

All tracks accurately ripped

No errors occurred

End of status report

==== Log checksum B0B7372E53B35055708ACA3CD78F486087687C4B4D11CFF44ED7F106B89042A2 ====

Exact Audio Copy V1.0 beta 3 from 29. August 2011

EAC extraction logfile from 16. November 2014, 0:30

Chuck Berry / Rock And Roll Music: Any Old Way You Choose It (Disc 3)

Used drive : TSSTcorpCDDVDW SH-224BB Adapter: 0 ID: 0

Read mode : Secure
Utilize accurate stream : Yes
Defeat audio cache : Yes
Make use of C2 pointers : No

Read offset correction

: 6
Overread into Lead-In and Lead-Out : No
Fill up missing offset samples with silence : Yes
Delete leading and trailing silent blocks : No
Null samples used in CRC calculations : Yes
Used interface
: Native Win32 interface for Win NT & 2000
Gap handling
: Appended to previous track

Used output format : User Defined Encoder
Selected bitrate : 768 kBit/s
Quality : High
Add ID3 tag : No
Command line compressor : C:\Program Files (x86)\Exact Audio Copy\FLAC\FLAC.EXE
Additional command line options : -8 -V -T "ARTIST=%artist%" -T "TITLE=%title%" -T "ALBUM=%albumtitle%" -T "DATE=%year%" -T "TRACKNUMBER=%tracknr%" -T "TOTALTRACKS=%numtracks%" -T "GENRE=%genre%" -T "ALBUMARTIST=%albumartist%" -T "ALBUM ARTIST=%albumartist%" -T "COMMENT=EAC Secure Mode, Test & Copy, AccurateRip, FLAC -8" %source%

TOC of the extracted CD Track | Start | Length | Start sector | End sector
--1 | 0:00.00 | 3:13.74 | 0 | 14548 2 | 3:13.74 | 2:45.36 | 14549 | 26959 3 | 5:59.35 | 2:42.34 | 26960 | 39143 4 | 8:41.69 | 2:19.03 | 39144 | 49571 5 | 11:00.72 | 2:36.66 | 49572 | 61337 6 | 13:37.63 | 2:21.30 | 61338 | 71942 7 | 15:59.18 | 2:29.21 | 71943 | 83138 8 | 18:28.39 | 2:10.62 | 83139 | 92950 9 | 20:39.26 | 3:10.02 | 92951 | 107202
10 | 23:49.28 | 2:31.65 | 107203 | 118592
11 | 26:21.18 | 2:17.48 | 118593 | 128915
12 | 28:38.66 | 2:44.44 | 128916 | 141259
13 | 31:23.35 | 3:08.51 | 141260 | 155410
14 | 34:32.11 | 2:13.16 | 155411 | 165401
15 | 36:45.27 | 2:28.49 | 165402 | 176550
16 | 39:14.01 | 1:48.19 | 176551 | 184669
17 | 41:02.20 | 2:35.74 | 184670 | 196368
18 | 43:38.19 | 2:19.36 | 196369 | 206829
19 | 45:57.55 | 2:26.66 | 206830 | 217845
20 | 48:24.46 | 2:19.56 | 217846 | 228326
21 | 50:44.27 | 2:16.57 | 228327 | 238583
22 | 53:01.09 | 2:08.74 | 238584 | 248257
23 | 55:10.08 | 2:11.50 | 248258 | 258132
24 | 57:21.58 | 2:03.49 | 258133 | 267406
25 | 59:25.32 | 2:05.72 | 267407 | 276853
26 | 61:31.29 | 2:32.55 | 276854 | 288308
27 | 64:04.09 | 1:51.11 | 288309 | 296644
28 | 65:55.20 | 2:30.52 | 296645 | 307946
29 | 68:25.72 | 2:47.30 | 307947 | 320501
30 | 71:13.27 | 2:53.39 | 320502 | 333515
31 | 74:06.66 | 2:40.04 | 333516 | 345519
32 | 76:46.70 | 2:15.46 | 345520 | 355690
33 | 79:02.41 | 2:09.49 | 355691 | 365414
34 | 81:12.15 | 2:47.45 | 365415 | 377984
35 | 83:59.60 | 2:15.36 | 377985 | 388145
36 | 86:15.21 | 2:25.52 | 388146 | 399072

Track 1 Filename C:\Rips\Chuck Berry - Rock And Roll Music Any Old Way You Choose It (2014) [FLAC]\CD3\01 - Merry Christmas Baby.wav Pre-gap length 0:00:02.00 Peak level 96.5 %
Extraction speed 4.7 X
Track quality 100.0 %
Test CRC 4E2DDE59
Copy CRC 4E2DDE59
Accurately ripped (confidence 1) [6F23CE44] (AR v2)
Copy OK

Track 2 Filename C:\Rips\Chuck Berry - Rock And Roll Music Any Old Way You Choose It (2014) [FLAC]\CD3\02 - Run Rudolph Run.wav Pre-gap length 0:00:02.00 Peak level 96.6 %
Extraction speed 4.9 X
Track quality 100.0 %
Test CRC 0D162CC3
Copy CRC 0D162CC3
Accurately ripped (confidence 1) [FE952535] (AR v2)
Copy OK

Track 3 Filename C:\Rips\Chuck Berry - Rock And Roll Music Any Old Way You Choose It (2014) [FLAC]\CD3\03 - Little Queenie.wav Pre-gap length 0:00:02.00 Peak level 91.1 %
Extraction speed 5.1 X
Track quality 100.0 %
Test CRC 9E58E6A3
Copy CRC 9E58E6A3
Accurately ripped (confidence 1) DF22EB0 (AR v2)
Copy OK

Track 4 Filename C:\Rips\Chuck Berry - Rock And Roll Music Any Old Way You Choose It (2014) [FLAC]\CD3\04 - That's My Desire.wav Pre-gap length 0:00:02.00 Peak level 96.5 %
Extraction speed 5.0 X
Track quality 100.0 %
Test CRC 28AEA38B
Copy CRC 28AEA38B
Accurately ripped (confidence 1) [42E745A9] (AR v2)
Copy OK

Track 5 Filename C:\Rips\Chuck Berry - Rock And Roll Music Any Old Way You Choose It (2014) [FLAC]\CD3\05 - Do You Love Me.wav Pre-gap length 0:00:02.00 Peak level 96.4 %
Extraction speed 5.5 X
Track quality 100.0 %
Test CRC 7CC40D34
Copy CRC 7CC40D34
Accurately ripped (confidence 1) [579878BC] (AR v2)
Copy OK

Track 6 Filename C:\Rips\Chuck Berry - Rock And Roll Music Any Old Way You Choose It (2014) [FLAC]\CD3\06 - Almost Grown.wav Pre-gap length 0:00:02.00 Peak level 90.0 %
Extraction speed 4.0 X
Track quality 99.9 %
Test CRC D60D9E9E
Copy CRC D60D9E9E
Accurately ripped (confidence 1) [FCE92D9B] (AR v2)
Copy OK

Track 7 Filename C:\Rips\Chuck Berry - Rock And Roll Music Any Old Way You Choose It (2014) [FLAC]\CD3\07 - Back In The USA.wav Pre-gap length 0:00:02.00 Peak level 96.6 %
Extraction speed 5.7 X
Track quality 100.0 %
Test CRC B74C9F55
Copy CRC B74C9F55
Accurately ripped (confidence 1) [730910D6] (AR v2)
Copy OK

Track 8 Filename C:\Rips\Chuck Berry - Rock And Roll Music Any Old Way You Choose It (2014) [FLAC]\CD3\08 - Fast B 6 (instrumental).wav Pre-gap length 0:00:02.00 Peak level 96.5 %
Extraction speed 4.1 X
Track quality 99.9 %
Test CRC 583437AA
Copy CRC 583437AA
Accurately ripped (confidence 1) [A0C27ED5] (AR v2)
Copy OK

Track 9 Filename C:\Rips\Chuck Berry - Rock And Roll Music Any Old Way You Choose It (2014) [FLAC]\CD3\09 - Blue On Blue (instrumental).wav Pre-gap length 0:00:02.00 Peak level 96.6 %
Extraction speed 6.3 X
Track quality 100.0 %
Test CRC 989BA7DE
Copy CRC 989BA7DE
Accurately ripped (confidence 1) [51384775] (AR v2)
Copy OK

Track 10 Filename C:\Rips\Chuck Berry - Rock And Roll Music Any Old Way You Choose It (2014) [FLAC]\CD3\10 - Betty Jean.wav Pre-gap length 0:00:02.00 Peak level 96.6 %
Extraction speed 6.3 X
Track quality 100.0 %
Test CRC 2E40CF2F
Copy CRC 2E40CF2F
Accurately ripped (confidence 1) [4D24F332] (AR v2)
Copy OK

Track 11 Filename C:\Rips\Chuck Berry - Rock And Roll Music Any Old Way You Choose It (2014) [FLAC]\CD3\11 - County Line.wav Pre-gap length 0:00:02.00 Peak level 96.6 %
Extraction speed 6.3 X
Track quality 100.0 %
Test CRC B033FF94
Copy CRC B033FF94
Accurately ripped (confidence 1) [678EE435] (AR v2)
Copy OK

Track 12 Filename C:\Rips\Chuck Berry - Rock And Roll Music Any Old Way You Choose It (2014) [FLAC]\CD3\12 - Childhood Sweetheart.wav Pre-gap length 0:00:02.00 Peak level 96.6 %
Extraction speed 6.7 X
Track quality 100.0 %
Test CRC 1AA8B5A1
Copy CRC 1AA8B5A1
Accurately ripped (confidence 1) [477ACF2A] (AR v2)
Copy OK

Track 13 Filename C:\Rips\Chuck Berry - Rock And Roll Music Any Old Way You Choose It (2014) [FLAC]\CD3\13 - One O'Clock Jump (instrumental).wav Pre-gap length 0:00:02.00 Peak level 96.6 %
Extraction speed 7.0 X
Track quality 100.0 %
Test CRC 4FEC8E68
Copy CRC 4FEC8E68
Accurately ripped (confidence 1) [82FE2182] (AR v2)
Copy OK

Track 14 Filename C:\Rips\Chuck Berry - Rock And Roll Music Any Old Way You Choose It (2014) [FLAC]\CD3\14 - I Just Want To Make Love To You.wav Pre-gap length 0:00:02.00 Peak level 96.5 %
Extraction speed 6.6 X
Track quality 100.0 %
Test CRC 7EF0DE37
Copy CRC 7EF0DE37
Accurately ripped (confidence 1) [608575C2] (AR v2)
Copy OK

Track 15 Filename C:\Rips\Chuck Berry - Rock And Roll Music Any Old Way You Choose It (2014) [FLAC]\CD3\15 - Broken Arrow.wav Pre-gap length 0:00:02.00 Peak level 96.5 %
Extraction speed 6.9 X
Track quality 100.0 %
Test CRC 4D9E7F86
Copy CRC 4D9E7F86
Accurately ripped (confidence 1) [8773F4BB] (AR v2)
Copy OK

Track 16 Filename C:\Rips\Chuck Berry - Rock And Roll Music Any Old Way You Choose It (2014) [FLAC]\CD3\16 - Let It Rock.wav Pre-gap length 0:00:02.00 Peak level 96.5 %
Extraction speed 6.4 X
Track quality 100.0 %
Test CRC CFBBA99C
Copy CRC CFBBA99C
Accurately ripped (confidence 1) [7F12C0C0] (AR v2)
Copy OK

Track 17 Filename C:\Rips\Chuck Berry - Rock And Roll Music Any Old Way You Choose It (2014) [FLAC]\CD3\17 - Too Pooped To Pop.wav Pre-gap length 0:00:02.00 Peak level 96.6 %
Extraction speed 7.2 X
Track quality 100.0 %
Test CRC 66602C88
Copy CRC 66602C88
Accurately ripped (confidence 1) [658B59AF] (AR v2)
Copy OK

Track 18 Filename C:\Rips\Chuck Berry - Rock And Roll Music Any Old Way You Choose It (2014) [FLAC]\CD3\18 - Say You'll Be Mine.wav Pre-gap length 0:00:02.00 Peak level 93.7 %
Extraction speed 7.2 X
Track quality 100.0 %
Test CRC 1238CBFD
Copy CRC 1238CBFD
Accurately ripped (confidence 1) [EF0925DD] (AR v2)
Copy OK

Track 19 Filename C:\Rips\Chuck Berry - Rock And Roll Music Any Old Way You Choose It (2014) [FLAC]\CD3\19 - Let Me Sleep Woman.wav Pre-gap length 0:00:02.00 Peak level 96.6 %
Extraction speed 7.2 X
Track quality 100.0 %
Test CRC 55519AA6
Copy CRC 55519AA6
Accurately ripped (confidence 1) [C1F4E07F] (AR v2)
Copy OK

Track 20 Filename C:\Rips\Chuck Berry - Rock And Roll Music Any Old Way You Choose It (2014) [FLAC]\CD3\20 - Drifting Blues.wav Pre-gap length 0:00:02.00 Peak level 96.5 %
Extraction speed 5.4 X
Track quality 99.9 %
Test CRC 1C0E01D6
Copy CRC 1C0E01D6
Accurately ripped (confidence 1) [0279C8EC] (AR v2)
Copy OK

Track 21 Filename C:\Rips\Chuck Berry - Rock And Roll Music Any Old Way You Choose It (2014) [FLAC]\CD3\21 - I Got To Find My Baby.wav Pre-gap length 0:00:02.00 Peak level 96.6 %
Extraction speed 5.3 X
Track quality 99.9 %
Test CRC C01D50D7
Copy CRC C01D50D7
Accurately ripped (confidence 1) [D98A9112] (AR v2)
Copy OK
Direct Download

Tags: Choose, Family, Records

Chuck Berry - Rock And Roll Music: Any Old Way You Choose It (2014) [16CD Box Set] {Bear Family Records} Download via Hotfile Rapidshare Fileserve Megaupload & FileSonic, Chuck Berry - Rock And Roll Music: Any Old Way You Choose It (2014) [16CD Box Set] {Bear Family Records} free torrent downloads included crack, serial, keygen.Chuck Berry - Rock And Roll Music: Any Old Way You Choose It (2014) [16CD Box Set] {Bear Family Records} Fast Download via Rapidshare Hotfile Fileserve Filesonic Megaupload, Chuck Berry - Rock And Roll Music: Any Old Way You Choose It (2014) [16CD Box Set] {Bear Family Records} Torrents and Emule Download or anything related.
Leave a Comment
Your Name:
E-Mail:
Add Comments:

Enter Code: