Shonen Knife - Pretty Little Baka Guy (1986) [US Reissue '2005] RESTORED

Download Now


Shonen Knife - Pretty Little Baka Guy (1986) [US Reissue '2005] RESTORED
Shonen Knife - Pretty Little Baka Guy (1986) S Reissue '2005
FLAC+CUE+LOG or MP3 CBR 320 | Complete Scanwork | 212 or 80 MB
Expanded & Remastered 2005 | Zero Communications Ltd. / Oglio Records

Pretty Little Baka Guy is the third album by female Japanese rock trio Shonen Knife. There have been many releases of this album in various countries over the years, with each release containing different rare tracks. This one the last US remaster.
Tracklist:

01. Making Plans For Bison
02. Summertime Boogie
03. I Wanna Eat Chocobars
04. Public Bath
05. Devil House
06. Antonio Baka Guy
07. Ice Cream City
08. Ah, Singapore
09. Riding On The Rocket
10. Kappa Ex.
11. Riding On The Rocket (Live) [Reissue Bonus Track]
12. Kappa Ex. (Live) [Reissue Bonus Track]

Live bonus tracks were recorded at
Eggplant, Osaka, Japan on August 7, 1988


Exact Audio Copy V0.99 prebeta 5 from 4. May 2009

EAC extraction logfile from 6. October 2010, 21:12

Shonen Knife / Pretty Little Baka Guy

Used drive : PIONEER DVD-RW DVR-116D Adapter: 1 ID: 0

Read mode : Secure
Utilize accurate stream : Yes
Defeat audio cache : Yes
Make use of C2 pointers : No

Read offset correction

: 96
Overread into Lead-In and Lead-Out : No
Fill up missing offset samples with silence : Yes
Delete leading and trailing silent blocks : No
Null samples used in CRC calculations : Yes
Used interface
: Installed external ASPI interface

Used output format : Internal WAV Routines
Sample format : 44.100 Hz; 16 Bit; Stereo

TOC of the extracted CD Track | Start | Length | Start sector | End sector
--1 | 0:00.00 | 2:06.70 | 0 | 9519 2 | 2:06.70 | 2:19.18 | 9520 | 19962 3 | 4:26.13 | 1:40.25 | 19963 | 27487 4 | 6:06.38 | 2:03.47 | 27488 | 36759 5 | 8:10.10 | 3:06.10 | 36760 | 50719 6 | 11:16.20 | 1:30.18 | 50720 | 57487 7 | 12:46.38 | 2:43.55 | 57488 | 69767 8 | 15:30.18 | 1:12.65 | 69768 | 75232 9 | 16:43.08 | 2:03.05 | 75233 | 84462
10 | 18:46.13 | 2:56.00 | 84463 | 97662
11 | 21:42.13 | 2:32.14 | 97663 | 109076
12 | 24:14.27 | 2:46.54 | 109077 | 121580

Range status and errors

Selected range Filename C:\AvaxHome.ru\Shonen Knife - Pretty Little Baka Guy (1986) [Reissue 2005]\Shonen Knife - Pretty Little Baka Guy (OGL 81610-2).wav Peak level 99.8 %
Range quality 100.0 %
Test CRC 50F3023F
Copy CRC 50F3023F
Copy OK

No errors occurred


AccurateRip summary

Track 1 accurately ripped (confidence 5) [DC14A513]
Track 2 accurately ripped (confidence 5) [5B62B38D]
Track 3 accurately ripped (confidence 5) [7128A6A3]
Track 4 accurately ripped (confidence 5) [97CA5290]
Track 5 accurately ripped (confidence 5) [D7966B22]
Track 6 accurately ripped (confidence 5) [83994B6B]
Track 7 accurately ripped (confidence 5) [6BD72188]
Track 8 accurately ripped (confidence 5) [F18685A0]
Track 9 accurately ripped (confidence 5) [E5FFB9FA]
Track 10 accurately ripped (confidence 5) [4E8C775B]
Track 11 accurately ripped (confidence 5) [A6EDFF67]
Track 12 accurately ripped (confidence 5) [9DDB640C]

All tracks accurately ripped

End of status report

Produced by Shonen Knife & Shin Hirakawa, except
"2 & 7" Produced by Shonen Knife & Yasushi Utsunomiya
Recorded from July 1985 to April 1986. Engineered & Mixed by Taku Ishii
Re-Mastered by Ohji Hayashi at Silence Audio Recording.

* Naoko Yamano - guitar, vocals
* Michie Nakatani - bass, vocals
* Atsuko Yamano - drums, backing vocals

Original Release Date: June 20, 1986
US Re-Release Date: January 25, 2005
Format: Original recording remastered
Label: Oglio Records
Catalog No.: OGL 81610-2
DOWNLOAD LINKS
Buy Premium From My Links To Get Resumable Support & Max Speed & To Support Me


Links are Interchangeable - No Password - Single Extraction
Direct Download

Tags: Shonen, Pretty, Little, Reissue, RESTORED

Shonen Knife - Pretty Little Baka Guy (1986) [US Reissue '2005] RESTORED Download via Hotfile Rapidshare Fileserve Megaupload & FileSonic, Shonen Knife - Pretty Little Baka Guy (1986) [US Reissue '2005] RESTORED free torrent downloads included crack, serial, keygen.Shonen Knife - Pretty Little Baka Guy (1986) [US Reissue '2005] RESTORED Fast Download via Rapidshare Hotfile Fileserve Filesonic Megaupload, Shonen Knife - Pretty Little Baka Guy (1986) [US Reissue '2005] RESTORED Torrents and Emule Download or anything related.
Leave a Comment
Your Name:
E-Mail:
Add Comments:

Enter Code: