Eric Bibb - Eric Bibb In 50 Songs (2014) [3CD] {DIXIEFROG Records}

Download Now


Eric Bibb - Eric Bibb In 50 Songs (2014) [3CD] {DIXIEFROG Records}
Eric Bibb - Eric Bibb In 50 Songs (2014) [3CD] {DIXIEFROG Records}
EAC rip (secure mode) | FLAC (tracks)+CUE+LOG -> 1.27 Gb | MP3 @320 -> 473 Mb
Full Artwork @ 600 dpi (jpg) -> 33 Mb | 5% repair rar
© 2014 DIXIEFROG Records / Harmonia Mundi | DFGCD 8765
Blues / Modern Electric Blues / Folk-Blues / Modern Acoustic Blues / Americana

"A compendium of Eric Bibb's best recordings from the past decade. 50 tracks, 3 CD's, three hours and twenty minutes of outstanding music. Considering the high level of quality that any Eric Bibb album has, one can imagine how exciting a collection of his favourite tunes, recorded between 2003 and 2013, would be! Here it is - The crown jewels indeed! As a bonus, Bibb re-recorded three especially cherished songs : a brilliant conclusion to the third CD."

"Like looking at my own reflection in the river as I padlle on, listening to these 50 songs, remembering where I've been, gave me a greater sense of who I am and what's important in my life. Being in a position to make a living by sharing my journey through words & music is a blessing for which I'm truly grateful. To all of you who have encouraged me along the way, I can only say: Thank you! Peace & Love, Eric"


Eric Bibb - Eric Bibb In 50 Songs (2014) [3CD] {DIXIEFROG Records}


tracklist:
Disc: 1

01. In My Father's House
02. Guru Man Blues
03. Heading Home
04. Champagne Habits
05. Too Much Stuff
06. Destiny Blues
07. Sittin' in a Hotel Room
08. Come Back Baby
09. Saucer 'N' Cup
10. Sinner Man
11. Right On Time
12. In My Time
13. For You
14. If I Stayed
15. 99 1/2 Won't Do
16. No More Cane On the Brazos
17. Boll Weevil
18. Kokomo

Eric Bibb - Eric Bibb In 50 Songs (2014) [3CD] {DIXIEFROG Records}


Disc: 2
01. Dance Me to the End of Love
02. Victory Voices
03. She Got Mine
04. Tell Riley
05. Stickin' to You
06. A Ship Called Love
07. Have a Heart
08. Forgiveness Is Gold
09. Let the Mothers Step Up
10. Dig a Little Deeper in the Well
11. On My Way to Bamako
12. The Cape
13. Bayou Belle
14. With My Maker I Am One
15. Hold On
16. Connected

Eric Bibb - Eric Bibb In 50 Songs (2014) [3CD] {DIXIEFROG Records}


Disc: 3
01. Stagolee
02. Goin' Down Slow
03. Drinkin' Gourd
04. The Right Thing
05. Shine On
06. Faded Jeans
07. The Way You Are
08. Don't Ever Let Nobody Drag Your Spirit Down
09. Bourgeois Blues
10. Diamond Days
11. Send Us Brighter Days
12. Water
13. Weepin' Mary
14. Wayfaring Stranger
15. Shingle By Shingle
16. Needed Time

Eric Bibb - Eric Bibb In 50 Songs (2014) [3CD] {DIXIEFROG Records}



Exact Audio Copy V1.0 beta 4 from 7. December 2014

EAC extraction logfile from 15. February 2015, 12:10

Eric Bibb / Eric Bibb in 50 songs

Used drive : TSSTcorpCDDVDW SN-208FB Adapter: 1 ID: 0

Read mode : Secure
Utilize accurate stream : Yes
Defeat audio cache : Yes
Make use of C2 pointers : No

Read offset correction

: 6
Overread into Lead-In and Lead-Out : No
Fill up missing offset samples with silence : Yes
Delete leading and trailing silent blocks : No
Null samples used in CRC calculations : Yes
Used interface
: Native Win32 interface for Win NT & 2000
Gap handling
: Appended to previous track

Used output format : User Defined Encoder
Selected bitrate : 1024 kBit/s
Quality : High
Add ID3 tag : No
Command line compressor : C:\Program Files (x86)\Kodeki za Glasbo\FLAC\flac.exe
Additional command line options : -8 -V -T "ARTIST=%artist%" -T "TITLE=%title%" -T "ALBUM=%albumtitle%" -T "DATE=%year%" -T "TRACKNUMBER=%tracknr%" -T "TOTALTRACKS=%numtracks%" -T "GENRE=%genre%" -T "ALBUMARTIST=%albumartist%" -T "ALBUM ARTIST=%albumartist%" -T "COMMENT=EAC Secure Mode, Test & Copy, AccurateRip, FLAC -8" %source%

TOC of the extracted CD Track | Start | Length | Start sector | End sector
--1 | 0:00.00 | 5:16.17 | 0 | 23716 2 | 5:16.17 | 1:47.14 | 23717 | 31755 3 | 7:03.31 | 3:35.48 | 31756 | 47928 4 | 10:39.04 | 3:29.47 | 47929 | 63650 5 | 14:08.51 | 3:42.58 | 63651 | 80358 6 | 17:51.34 | 3:33.55 | 80359 | 96388 7 | 21:25.14 | 2:46.37 | 96389 | 108875 8 | 24:11.51 | 5:07.05 | 108876 | 131905 9 | 29:18.56 | 4:29.66 | 131906 | 152146
10 | 33:48.47 | 4:51.59 | 152147 | 174030
11 | 38:40.31 | 4:06.48 | 174031 | 192528
12 | 42:47.04 | 3:46.40 | 192529 | 209518
13 | 46:33.44 | 4:49.24 | 209519 | 231217
14 | 51:22.68 | 2:03.19 | 231218 | 240461
15 | 53:26.12 | 3:32.55 | 240462 | 256416
16 | 56:58.67 | 5:43.20 | 256417 | 282161
17 | 62:42.12 | 2:58.68 | 282162 | 295579
18 | 65:41.05 | 4:56.09 | 295580 | 317788

Track 1 Filename M:\3. my rip in preparation\Eric Bibb - Eric Bibb in 50 songs (2014) [FLAC] (with Digipac 3CD) {DIXIEFROG Records DFGCD 8765}\CD1\01 - In My Father's House.wav Pre-gap length 0:00:02.00 Peak level 98.8 %
Extraction speed 1.3 X
Track quality 100.0 %
Test CRC 980D6AD0
Copy CRC 980D6AD0
Accurately ripped (confidence 4) [EFC763D5] (AR v2)
Copy OK

Track 2 Filename M:\3. my rip in preparation\Eric Bibb - Eric Bibb in 50 songs (2014) [FLAC] (with Digipac 3CD) {DIXIEFROG Records DFGCD 8765}\CD1\02 - Guru Man Blues.wav Peak level 98.8 %
Extraction speed 0.9 X
Track quality 99.9 %
Test CRC 1DB1439F
Copy CRC 1DB1439F
Accurately ripped (confidence 4) [5B778AA2] (AR v2)
Copy OK

Track 3 Filename M:\3. my rip in preparation\Eric Bibb - Eric Bibb in 50 songs (2014) [FLAC] (with Digipac 3CD) {DIXIEFROG Records DFGCD 8765}\CD1\03 - Heading Home.wav Peak level 98.8 %
Extraction speed 1.5 X
Track quality 100.0 %
Test CRC 0E6E6DC6
Copy CRC 0E6E6DC6
Accurately ripped (confidence 5) [3310B908] (AR v2)
Copy OK

Track 4 Filename M:\3. my rip in preparation\Eric Bibb - Eric Bibb in 50 songs (2014) [FLAC] (with Digipac 3CD) {DIXIEFROG Records DFGCD 8765}\CD1\04 - Champagne Habit.wav Peak level 98.8 %
Extraction speed 1.5 X
Track quality 100.0 %
Test CRC F948EDCA
Copy CRC F948EDCA
Accurately ripped (confidence 4) [DEDB9F4D] (AR v2)
Copy OK

Track 5 Filename M:\3. my rip in preparation\Eric Bibb - Eric Bibb in 50 songs (2014) [FLAC] (with Digipac 3CD) {DIXIEFROG Records DFGCD 8765}\CD1\05 - Too Much Stuff.wav Peak level 98.8 %
Extraction speed 1.4 X
Track quality 99.9 %
Test CRC D9731CB5
Copy CRC D9731CB5
Accurately ripped (confidence 4) [7A2D0725] (AR v2)
Copy OK

Track 6 Filename M:\3. my rip in preparation\Eric Bibb - Eric Bibb in 50 songs (2014) [FLAC] (with Digipac 3CD) {DIXIEFROG Records DFGCD 8765}\CD1\06 - Destiny Blues.wav Peak level 98.8 %
Extraction speed 1.7 X
Track quality 100.0 %
Test CRC 41BBF9CB
Copy CRC 41BBF9CB
Accurately ripped (confidence 5) [C1629161] (AR v2)
Copy OK

Track 7 Filename M:\3. my rip in preparation\Eric Bibb - Eric Bibb in 50 songs (2014) [FLAC] (with Digipac 3CD) {DIXIEFROG Records DFGCD 8765}\CD1\07 - Sittin' in a Hotel Room.wav Peak level 98.8 %
Extraction speed 1.7 X
Track quality 100.0 %
Test CRC B810DEDD
Copy CRC B810DEDD
Accurately ripped (confidence 4) C9625AD (AR v2)
Copy OK

Track 8 Filename M:\3. my rip in preparation\Eric Bibb - Eric Bibb in 50 songs (2014) [FLAC] (with Digipac 3CD) {DIXIEFROG Records DFGCD 8765}\CD1\08 - Come Back Baby.wav Peak level 98.8 %
Extraction speed 1.8 X
Track quality 99.9 %
Test CRC CB1B59F2
Copy CRC CB1B59F2
Accurately ripped (confidence 5) [D73DAA3A] (AR v2)
Copy OK

Track 9 Filename M:\3. my rip in preparation\Eric Bibb - Eric Bibb in 50 songs (2014) [FLAC] (with Digipac 3CD) {DIXIEFROG Records DFGCD 8765}\CD1\09 - Saucer 'n' Cup.wav Peak level 98.8 %
Extraction speed 1.8 X
Track quality 99.9 %
Test CRC 7475C91C
Copy CRC 7475C91C
Accurately ripped (confidence 4) [9A0FE5F1] (AR v2)
Copy OK

Track 10 Filename M:\3. my rip in preparation\Eric Bibb - Eric Bibb in 50 songs (2014) [FLAC] (with Digipac 3CD) {DIXIEFROG Records DFGCD 8765}\CD1\10 - Sinner Man.wav Peak level 98.8 %
Extraction speed 2.2 X
Track quality 100.0 %
Test CRC 351600AE
Copy CRC 351600AE
Accurately ripped (confidence 4) [7694442D] (AR v2)
Copy OK

Track 11 Filename M:\3. my rip in preparation\Eric Bibb - Eric Bibb in 50 songs (2014) [FLAC] (with Digipac 3CD) {DIXIEFROG Records DFGCD 8765}\CD1\11 - Right on Time.wav Peak level 98.8 %
Extraction speed 1.9 X
Track quality 99.9 %
Test CRC 4FF2776F
Copy CRC 4FF2776F
Accurately ripped (confidence 4) [404B93E9] (AR v2)
Copy OK

Track 12 Filename M:\3. my rip in preparation\Eric Bibb - Eric Bibb in 50 songs (2014) [FLAC] (with Digipac 3CD) {DIXIEFROG Records DFGCD 8765}\CD1\12 - In my Time.wav Peak level 98.8 %
Extraction speed 2.2 X
Track quality 100.0 %
Test CRC 6AC4C2A3
Copy CRC 6AC4C2A3
Accurately ripped (confidence 5) [1865CEE8] (AR v2)
Copy OK

Track 13 Filename M:\3. my rip in preparation\Eric Bibb - Eric Bibb in 50 songs (2014) [FLAC] (with Digipac 3CD) {DIXIEFROG Records DFGCD 8765}\CD1\13 - For You.wav Peak level 98.8 %
Extraction speed 2.4 X
Track quality 100.0 %
Test CRC 7BFC6BF1
Copy CRC 7BFC6BF1
Accurately ripped (confidence 4) [DD27616B] (AR v2)
Copy OK

Track 14 Filename M:\3. my rip in preparation\Eric Bibb - Eric Bibb in 50 songs (2014) [FLAC] (with Digipac 3CD) {DIXIEFROG Records DFGCD 8765}\CD1\14 - If I Stayed.wav Peak level 96.3 %
Extraction speed 2.1 X
Track quality 100.0 %
Test CRC 873D95D2
Copy CRC 873D95D2
Accurately ripped (confidence 4) [36896CC6] (AR v2)
Copy OK

Track 15 Filename M:\3. my rip in preparation\Eric Bibb - Eric Bibb in 50 songs (2014) [FLAC] (with Digipac 3CD) {DIXIEFROG Records DFGCD 8765}\CD1\15 - 99 1,2 Won't Do.wav Peak level 98.8 %
Extraction speed 2.4 X
Track quality 100.0 %
Test CRC D432C9A6
Copy CRC D432C9A6
Accurately ripped (confidence 4) [D89EDA4F] (AR v2)
Copy OK

Track 16 Filename M:\3. my rip in preparation\Eric Bibb - Eric Bibb in 50 songs (2014) [FLAC] (with Digipac 3CD) {DIXIEFROG Records DFGCD 8765}\CD1\16 - No More Cane on the Brazos.wav Peak level 98.8 %
Extraction speed 2.4 X
Track quality 99.9 %
Test CRC AB943CD6
Copy CRC AB943CD6
Accurately ripped (confidence 5) [6B3D29F9] (AR v2)
Copy OK

Track 17 Filename M:\3. my rip in preparation\Eric Bibb - Eric Bibb in 50 songs (2014) [FLAC] (with Digipac 3CD) {DIXIEFROG Records DFGCD 8765}\CD1\17 - Boll Weevil.wav Peak level 98.8 %
Extraction speed 2.4 X
Track quality 100.0 %
Test CRC 5C21A307
Copy CRC 5C21A307
Accurately ripped (confidence 4) [FC45706D] (AR v2)
Copy OK

Track 18 Filename M:\3. my rip in preparation\Eric Bibb - Eric Bibb in 50 songs (2014) [FLAC] (with Digipac 3CD) {DIXIEFROG Records DFGCD 8765}\CD1\18 - Kokomo.wav Peak level 98.8 %
Extraction speed 2.4 X
Track quality 99.9 %
Test CRC 45C944CB
Copy CRC 45C944CB
Accurately ripped (confidence 5) [D28D3D3C] (AR v2)
Copy OK

All tracks accurately ripped

No errors occurred

End of status report

- CUETools DB Plugin V2.1.4

[CTDB TOCID: l7Vvp_pVVT64Sw7xvxTKG2f7qls-] found
Submit result: l7Vvp_pVVT64Sw7xvxTKG2f7qls- has been confirmed
Track | CTDB Status
1 | (8/8) Accurately ripped
2 | (8/8) Accurately ripped
3 | (8/8) Accurately ripped
4 | (8/8) Accurately ripped
5 | (8/8) Accurately ripped
6 | (8/8) Accurately ripped
7 | (8/8) Accurately ripped
8 | (8/8) Accurately ripped
9 | (8/8) Accurately ripped
10 | (8/8) Accurately ripped
11 | (8/8) Accurately ripped
12 | (8/8) Accurately ripped
13 | (8/8) Accurately ripped
14 | (8/8) Accurately ripped
15 | (8/8) Accurately ripped
16 | (8/8) Accurately ripped
17 | (8/8) Accurately ripped
18 | (8/8) Accurately ripped

==== Log checksum 237BADA43789360AF38319717EBD86CADC82B9670934ED97900C005D29E5A978 ====

Exact Audio Copy V1.0 beta 4 from 7. December 2014

EAC extraction logfile from 15. February 2015, 12:55

Eric Bibb / Eric Bibb in 50 songs

Used drive : TSSTcorpCDDVDW SN-208FB Adapter: 1 ID: 0

Read mode : Secure
Utilize accurate stream : Yes
Defeat audio cache : Yes
Make use of C2 pointers : No

Read offset correction

: 6
Overread into Lead-In and Lead-Out : No
Fill up missing offset samples with silence : Yes
Delete leading and trailing silent blocks : No
Null samples used in CRC calculations : Yes
Used interface
: Native Win32 interface for Win NT & 2000
Gap handling
: Appended to previous track

Used output format : User Defined Encoder
Selected bitrate : 1024 kBit/s
Quality : High
Add ID3 tag : No
Command line compressor : C:\Program Files (x86)\Kodeki za Glasbo\FLAC\flac.exe
Additional command line options : -8 -V -T "ARTIST=%artist%" -T "TITLE=%title%" -T "ALBUM=%albumtitle%" -T "DATE=%year%" -T "TRACKNUMBER=%tracknr%" -T "TOTALTRACKS=%numtracks%" -T "GENRE=%genre%" -T "ALBUMARTIST=%albumartist%" -T "ALBUM ARTIST=%albumartist%" -T "COMMENT=EAC Secure Mode, Test & Copy, AccurateRip, FLAC -8" %source%

TOC of the extracted CD Track | Start | Length | Start sector | End sector
--1 | 0:00.00 | 4:37.71 | 0 | 20845 2 | 4:37.71 | 3:06.71 | 20846 | 34866 3 | 7:44.67 | 2:30.01 | 34867 | 46117 4 | 10:14.68 | 3:18.71 | 46118 | 61038 5 | 13:33.64 | 4:24.30 | 61039 | 80868 6 | 17:58.19 | 3:09.36 | 80869 | 95079 7 | 21:07.55 | 4:29.74 | 95080 | 115328 8 | 25:37.54 | 4:30.24 | 115329 | 135602 9 | 30:08.03 | 3:33.53 | 135603 | 151630
10 | 33:41.56 | 4:04.30 | 151631 | 169960
11 | 37:46.11 | 3:14.56 | 169961 | 184566
12 | 41:00.67 | 3:21.21 | 184567 | 199662
13 | 44:22.13 | 4:12.05 | 199663 | 218567
14 | 48:34.18 | 4:37.17 | 218568 | 239359
15 | 53:11.35 | 8:34.00 | 239360 | 277909
16 | 61:45.35 | 6:27.54 | 277910 | 306988

Track 1 Filename M:\3. my rip in preparation\Eric Bibb - Eric Bibb in 50 songs (2014) [FLAC] (with Digipac 3CD) {DIXIEFROG Records DFGCD 8765}\CD2\01 - Dance Me to the End of Love.wav Pre-gap length 0:00:02.00 Peak level 98.8 %
Extraction speed 3.0 X
Track quality 100.0 %
Test CRC F4C8E844
Copy CRC F4C8E844
Accurately ripped (confidence 4) [88B36505] (AR v2)
Copy OK

Track 2 Filename M:\3. my rip in preparation\Eric Bibb - Eric Bibb in 50 songs (2014) [FLAC] (with Digipac 3CD) {DIXIEFROG Records DFGCD 8765}\CD2\02 - Victory Voices.wav Peak level 98.8 %
Extraction speed 3.1 X
Track quality 100.0 %
Test CRC CD9EBD29
Copy CRC CD9EBD29
Accurately ripped (confidence 5) [2658D1B7] (AR v2)
Copy OK

Track 3 Filename M:\3. my rip in preparation\Eric Bibb - Eric Bibb in 50 songs (2014) [FLAC] (with Digipac 3CD) {DIXIEFROG Records DFGCD 8765}\CD2\03 - She Got Mine.wav Peak level 98.8 %
Extraction speed 3.1 X
Track quality 100.0 %
Test CRC 58076D80
Copy CRC 58076D80
Accurately ripped (confidence 5) [57F701B4] (AR v2)
Copy OK

Track 4 Filename M:\3. my rip in preparation\Eric Bibb - Eric Bibb in 50 songs (2014) [FLAC] (with Digipac 3CD) {DIXIEFROG Records DFGCD 8765}\CD2\04 - Tell Riley.wav Peak level 98.8 %
Extraction speed 3.4 X
Track quality 100.0 %
Test CRC 60B63CB7
Copy CRC 60B63CB7
Accurately ripped (confidence 4) [E4DB9021] (AR v2)
Copy OK

Track 5 Filename M:\3. my rip in preparation\Eric Bibb - Eric Bibb in 50 songs (2014) [FLAC] (with Digipac 3CD) {DIXIEFROG Records DFGCD 8765}\CD2\05 - Stickin' to You.wav Peak level 98.8 %
Extraction speed 3.8 X
Track quality 100.0 %
Test CRC 9019609B
Copy CRC 9019609B
Accurately ripped (confidence 4) [5F56D1A9] (AR v2)
Copy OK

Track 6 Filename M:\3. my rip in preparation\Eric Bibb - Eric Bibb in 50 songs (2014) [FLAC] (with Digipac 3CD) {DIXIEFROG Records DFGCD 8765}\CD2\06 - A Ship Called Love.wav Peak level 98.8 %
Extraction speed 3.8 X
Track quality 100.0 %
Test CRC 8905A9D3
Copy CRC 8905A9D3
Accurately ripped (confidence 4) [0BBBE452] (AR v2)
Copy OK

Track 7 Filename M:\3. my rip in preparation\Eric Bibb - Eric Bibb in 50 songs (2014) [FLAC] (with Digipac 3CD) {DIXIEFROG Records DFGCD 8765}\CD2\07 - Have a Heart.wav Peak level 98.8 %
Extraction speed 4.2 X
Track quality 100.0 %
Test CRC 9B14ABE5
Copy CRC 9B14ABE5
Accurately ripped (confidence 4) [6D06113C] (AR v2)
Copy OK

Track 8 Filename M:\3. my rip in preparation\Eric Bibb - Eric Bibb in 50 songs (2014) [FLAC] (with Digipac 3CD) {DIXIEFROG Records DFGCD 8765}\CD2\08 - Forgiveness Is Gold.wav Peak level 98.8 %
Extraction speed 4.4 X
Track quality 100.0 %
Test CRC 20C58375
Copy CRC 20C58375
Accurately ripped (confidence 4) [5C46E8EF] (AR v2)
Copy OK

Track 9 Filename M:\3. my rip in preparation\Eric Bibb - Eric Bibb in 50 songs (2014) [FLAC] (with Digipac 3CD) {DIXIEFROG Records DFGCD 8765}\CD2\09 - Let the Mothers Step Up.wav Peak level 98.8 %
Extraction speed 4.4 X
Track quality 100.0 %
Test CRC 789B0F1B
Copy CRC 789B0F1B
Accurately ripped (confidence 4) [F678B49B] (AR v2)
Copy OK

Track 10 Filename M:\3. my rip in preparation\Eric Bibb - Eric Bibb in 50 songs (2014) [FLAC] (with Digipac 3CD) {DIXIEFROG Records DFGCD 8765}\CD2\10 - Dig a Little Deeper in the Well.wav Peak level 98.8 %
Extraction speed 4.7 X
Track quality 100.0 %
Test CRC 0AB072DB
Copy CRC 0AB072DB
Accurately ripped (confidence 4) [E2664CBD] (AR v2)
Copy OK

Track 11 Filename M:\3. my rip in preparation\Eric Bibb - Eric Bibb in 50 songs (2014) [FLAC] (with Digipac 3CD) {DIXIEFROG Records DFGCD 8765}\CD2\11 - On my Way to Bamako.wav Peak level 98.8 %
Extraction speed 4.6 X
Track quality 100.0 %
Test CRC CCF0B272
Copy CRC CCF0B272
Accurately ripped (confidence 5) [E291D538] (AR v2)
Copy OK

Track 12 Filename M:\3. my rip in preparation\Eric Bibb - Eric Bibb in 50 songs (2014) [FLAC] (with Digipac 3CD) {DIXIEFROG Records DFGCD 8765}\CD2\12 - The Cape.wav Peak level 98.8 %
Extraction speed 4.8 X
Track quality 100.0 %
Test CRC D62B347F
Copy CRC D62B347F
Accurately ripped (confidence 4) [4735443B] (AR v2)
Copy OK

Track 13 Filename M:\3. my rip in preparation\Eric Bibb - Eric Bibb in 50 songs (2014) [FLAC] (with Digipac 3CD) {DIXIEFROG Records DFGCD 8765}\CD2\13 - Bayou Belle.wav Peak level 98.8 %
Extraction speed 5.1 X
Track quality 100.0 %
Test CRC 2E5D8D44
Copy CRC 2E5D8D44
Accurately ripped (confidence 4) [6501DA7D] (AR v2)
Copy OK

Track 14 Filename M:\3. my rip in preparation\Eric Bibb - Eric Bibb in 50 songs (2014) [FLAC] (with Digipac 3CD) {DIXIEFROG Records DFGCD 8765}\CD2\14 - With my Maker I am One.wav Peak level 98.8 %
Extraction speed 4.2 X
Track quality 99.9 %
Test CRC 5A708523
Copy CRC 5A708523
Accurately ripped (confidence 4) [32B8167C] (AR v2)
Copy OK

Track 15 Filename M:\3. my rip in preparation\Eric Bibb - Eric Bibb in 50 songs (2014) [FLAC] (with Digipac 3CD) {DIXIEFROG Records DFGCD 8765}\CD2\15 - Hold On.wav Peak level 98.8 %
Extraction speed 5.5 X
Track quality 100.0 %
Test CRC 4779D1DE
Copy CRC 4779D1DE
Accurately ripped (confidence 5) [7C2DC33F] (AR v2)
Copy OK

Track 16 Filename M:\3. my rip in preparation\Eric Bibb - Eric Bibb in 50 songs (2014) [FLAC] (with Digipac 3CD) {DIXIEFROG Records DFGCD 8765}\CD2\16 - Connected.wav Peak level 98.8 %
Extraction speed 5.6 X
Track quality 100.0 %
Test CRC FE3D0C95
Copy CRC FE3D0C95
Accurately ripped (confidence 4) [3CD9C374] (AR v2)
Copy OK

All tracks accurately ripped

No errors occurred

End of status report

- CUETools DB Plugin V2.1.4

[CTDB TOCID: 9IvTIvSFvoVJoyJJZX1sQ8c1Hvo-] found
Submit result: 9IvTIvSFvoVJoyJJZX1sQ8c1Hvo- has been confirmed
Track | CTDB Status
1 | (9/9) Accurately ripped
2 | (9/9) Accurately ripped
3 | (9/9) Accurately ripped
4 | (9/9) Accurately ripped
5 | (9/9) Accurately ripped
6 | (9/9) Accurately ripped
7 | (9/9) Accurately ripped
8 | (9/9) Accurately ripped
9 | (9/9) Accurately ripped
10 | (9/9) Accurately ripped
11 | (9/9) Accurately ripped
12 | (9/9) Accurately ripped
13 | (9/9) Accurately ripped
14 | (9/9) Accurately ripped
15 | (9/9) Accurately ripped
16 | (9/9) Accurately ripped

==== Log checksum E70C89A860D543EF8EA5543D1AE9EF6F77692250104832CA32FAFA6AC27CF362 ====

Exact Audio Copy V1.0 beta 4 from 7. December 2014

EAC extraction logfile from 15. February 2015, 13:41

Eric Bibb / Eric Bibb in 50 songs

Used drive : TSSTcorpCDDVDW SN-208FB Adapter: 1 ID: 0

Read mode : Secure
Utilize accurate stream : Yes
Defeat audio cache : Yes
Make use of C2 pointers : No

Read offset correction

: 6
Overread into Lead-In and Lead-Out : No
Fill up missing offset samples with silence : Yes
Delete leading and trailing silent blocks : No
Null samples used in CRC calculations : Yes
Used interface
: Native Win32 interface for Win NT & 2000
Gap handling
: Appended to previous track

Used output format : User Defined Encoder
Selected bitrate : 1024 kBit/s
Quality : High
Add ID3 tag : No
Command line compressor : C:\Program Files (x86)\Kodeki za Glasbo\FLAC\flac.exe
Additional command line options : -8 -V -T "ARTIST=%artist%" -T "TITLE=%title%" -T "ALBUM=%albumtitle%" -T "DATE=%year%" -T "TRACKNUMBER=%tracknr%" -T "TOTALTRACKS=%numtracks%" -T "GENRE=%genre%" -T "ALBUMARTIST=%albumartist%" -T "ALBUM ARTIST=%albumartist%" -T "COMMENT=EAC Secure Mode, Test & Copy, AccurateRip, FLAC -8" %source%

TOC of the extracted CD Track | Start | Length | Start sector | End sector
--1 | 0:00.00 | 2:42.61 | 0 | 12210 2 | 2:42.61 | 4:40.57 | 12211 | 33267 3 | 7:23.43 | 3:04.01 | 33268 | 47068 4 | 10:27.44 | 4:10.52 | 47069 | 65870 5 | 14:38.21 | 3:44.44 | 65871 | 82714 6 | 18:22.65 | 3:45.52 | 82715 | 99641 7 | 22:08.42 | 3:11.52 | 99642 | 114018 8 | 25:20.19 | 4:18.29 | 114019 | 133397 9 | 29:38.48 | 2:51.15 | 133398 | 146237
10 | 32:29.63 | 3:31.63 | 146238 | 162125
11 | 36:01.51 | 3:58.18 | 162126 | 179993
12 | 39:59.69 | 3:16.52 | 179994 | 194745
13 | 43:16.46 | 1:35.10 | 194746 | 201880
14 | 44:51.56 | 6:21.55 | 201881 | 230510
15 | 51:13.36 | 4:06.23 | 230511 | 248983
16 | 55:19.59 | 3:35.17 | 248984 | 265125

Track 1 Filename M:\3. my rip in preparation\Eric Bibb - Eric Bibb in 50 songs (2014) [FLAC] (with Digipac 3CD) {DIXIEFROG Records DFGCD 8765}\CD3\01 - Stagolee.wav Pre-gap length 0:00:02.00 Peak level 98.8 %
Extraction speed 2.4 X
Track quality 100.0 %
Test CRC ACEA2293
Copy CRC ACEA2293
Accurately ripped (confidence 4) [DBB036C7] (AR v2)
Copy OK

Track 2 Filename M:\3. my rip in preparation\Eric Bibb - Eric Bibb in 50 songs (2014) [FLAC] (with Digipac 3CD) {DIXIEFROG Records DFGCD 8765}\CD3\02 - Goin' Down Slow.wav Peak level 98.8 %
Extraction speed 2.8 X
Track quality 100.0 %
Test CRC C35542A9
Copy CRC C35542A9
Accurately ripped (confidence 4) [4C721966] (AR v2)
Copy OK

Track 3 Filename M:\3. my rip in preparation\Eric Bibb - Eric Bibb in 50 songs (2014) [FLAC] (with Digipac 3CD) {DIXIEFROG Records DFGCD 8765}\CD3\03 - Drinkin' Gourd.wav Peak level 98.8 %
Extraction speed 2.9 X
Track quality 100.0 %
Test CRC 913DA80D
Copy CRC 913DA80D
Accurately ripped (confidence 4) [1CC9E17C] (AR v2)
Copy OK

Track 4 Filename M:\3. my rip in preparation\Eric Bibb - Eric Bibb in 50 songs (2014) [FLAC] (with Digipac 3CD) {DIXIEFROG Records DFGCD 8765}\CD3\04 - The Right Thing.wav Peak level 98.8 %
Extraction speed 3.3 X
Track quality 100.0 %
Test CRC B29B6A40
Copy CRC B29B6A40
Accurately ripped (confidence 4) [F20F4140] (AR v2)
Copy OK

Track 5 Filename M:\3. my rip in preparation\Eric Bibb - Eric Bibb in 50 songs (2014) [FLAC] (with Digipac 3CD) {DIXIEFROG Records DFGCD 8765}\CD3\05 - Shine On.wav Peak level 98.8 %
Extraction speed 3.4 X
Track quality 100.0 %
Test CRC 79256FF7
Copy CRC 79256FF7
Accurately ripped (confidence 4) [CA9AB288] (AR v2)
Copy OK

Track 6 Filename M:\3. my rip in preparation\Eric Bibb - Eric Bibb in 50 songs (2014) [FLAC] (with Digipac 3CD) {DIXIEFROG Records DFGCD 8765}\CD3\06 - Faded Jeans.wav Peak level 98.8 %
Extraction speed 3.6 X
Track quality 100.0 %
Test CRC 704650E6
Copy CRC 704650E6
Accurately ripped (confidence 4) [0A601287] (AR v2)
Copy OK

Track 7 Filename M:\3. my rip in preparation\Eric Bibb - Eric Bibb in 50 songs (2014) [FLAC] (with Digipac 3CD) {DIXIEFROG Records DFGCD 8765}\CD3\07 - The Way You Are.wav Peak level 98.8 %
Extraction speed 3.7 X
Track quality 100.0 %
Test CRC CC8805C9
Copy CRC CC8805C9
Accurately ripped (confidence 4) 8D73978 (AR v2)
Copy OK

Track 8 Filename M:\3. my rip in preparation\Eric Bibb - Eric Bibb in 50 songs (2014) [FLAC] (with Digipac 3CD) {DIXIEFROG Records DFGCD 8765}\CD3\08 - Don't Ever Let Nobody Drag Your Spirit Down.wav Peak level 97.7 %
Extraction speed 4.0 X
Track quality 100.0 %
Test CRC 97F591D9
Copy CRC 97F591D9
Accurately ripped (confidence 4) [692B5C22] (AR v2)
Copy OK

Track 9 Filename M:\3. my rip in preparation\Eric Bibb - Eric Bibb in 50 songs (2014) [FLAC] (with Digipac 3CD) {DIXIEFROG Records DFGCD 8765}\CD3\09 - Bourgeois Blues.wav Peak level 97.7 %
Extraction speed 3.9 X
Track quality 100.0 %
Test CRC E57C2248
Copy CRC E57C2248
Accurately ripped (confidence 4) [50602945] (AR v2)
Copy OK

Track 10 Filename M:\3. my rip in preparation\Eric Bibb - Eric Bibb in 50 songs (2014) [FLAC] (with Digipac 3CD) {DIXIEFROG Records DFGCD 8765}\CD3\10 - Diamond Days.wav Peak level 98.8 %
Extraction speed 3.2 X
Track quality 99.9 %
Test CRC 555A4955
Copy CRC 555A4955
Accurately ripped (confidence 4) [447FD883] (AR v2)
Copy OK

Track 11 Filename M:\3. my rip in preparation\Eric Bibb - Eric Bibb in 50 songs (2014) [FLAC] (with Digipac 3CD) {DIXIEFROG Records DFGCD 8765}\CD3\11 - Send Us Brighter Days.wav Peak level 98.8 %
Extraction speed 4.2 X
Track quality 100.0 %
Test CRC D1806A80
Copy CRC D1806A80
Accurately ripped (confidence 5) [CEB5606E] (AR v2)
Copy OK

Track 12 Filename M:\3. my rip in preparation\Eric Bibb - Eric Bibb in 50 songs (2014) [FLAC] (with Digipac 3CD) {DIXIEFROG Records DFGCD 8765}\CD3\12 - Water.wav Peak level 98.8 %
Extraction speed 4.2 X
Track quality 100.0 %
Test CRC 217264E7
Copy CRC 217264E7
Accurately ripped (confidence 4) [29C8F90F] (AR v2)
Copy OK

Track 13 Filename M:\3. my rip in preparation\Eric Bibb - Eric Bibb in 50 songs (2014) [FLAC] (with Digipac 3CD) {DIXIEFROG Records DFGCD 8765}\CD3\13 - Weepin' Mary.wav Peak level 98.8 %
Extraction speed 3.6 X
Track quality 100.0 %
Test CRC FA8B4478
Copy CRC FA8B4478
Accurately ripped (confidence 4) [63E1530F] (AR v2)
Copy OK

Track 14 Filename M:\3. my rip in preparation\Eric Bibb - Eric Bibb in 50 songs (2014) [FLAC] (with Digipac 3CD) {DIXIEFROG Records DFGCD 8765}\CD3\14 - Wayfaring Stranger.wav Peak level 98.8 %
Extraction speed 4.7 X
Track quality 100.0 %
Test CRC 89ABB347
Copy CRC 89ABB347
Accurately ripped (confidence 4) [2A934D5E] (AR v2)
Copy OK

Track 15 Filename M:\3. my rip in preparation\Eric Bibb - Eric Bibb in 50 songs (2014) [FLAC] (with Digipac 3CD) {DIXIEFROG Records DFGCD 8765}\CD3\15 - Shingle by Shingle.wav Peak level 98.8 %
Extraction speed 3.9 X
Track quality 99.9 %
Test CRC CF935E2C
Copy CRC CF935E2C
Accurately ripped (confidence 4) [34AD7947] (AR v2)
Copy OK

Track 16 Filename M:\3. my rip in preparation\Eric Bibb - Eric Bibb in 50 songs (2014) [FLAC] (with Digipac 3CD) {DIXIEFROG Records DFGCD 8765}\CD3\16 - Needed Time.wav Peak level 98.8 %
Extraction speed 4.7 X
Track quality 100.0 %
Test CRC B78264EA
Copy CRC B78264EA
Accurately ripped (confidence 4) [D923C066] (AR v2)
Copy OK

All tracks accurately ripped

No errors occurred

End of status report

- CUETools DB Plugin V2.1.4

[CTDB TOCID: jT55wCEtZ10qd185IBfXOOnZGEQ-] found
Submit result: jT55wCEtZ10qd185IBfXOOnZGEQ- has been confirmed
Track | CTDB Status
1 | (9/9) Accurately ripped
2 | (9/9) Accurately ripped
3 | (9/9) Accurately ripped
4 | (9/9) Accurately ripped
5 | (9/9) Accurately ripped
6 | (9/9) Accurately ripped
7 | (9/9) Accurately ripped
8 | (9/9) Accurately ripped
9 | (9/9) Accurately ripped
10 | (9/9) Accurately ripped
11 | (9/9) Accurately ripped
12 | (9/9) Accurately ripped
13 | (9/9) Accurately ripped
14 | (9/9) Accurately ripped
15 | (9/9) Accurately ripped
16 | (9/9) Accurately ripped

==== Log checksum B24DA810A13FE640A86EFE5DCE6FCF63C979B90F18051F6EE71197C96501532B ====

Eric Bibb - Eric Bibb In 50 Songs (2014) [3CD] {DIXIEFROG Records}


All thanks goes to the original releaser!
DOWNLOAD LINKS:
Buy Premium To Support Me & Get Resumable Support & Max Speed


Links are Interchangeable - No Password - Single Extraction
Direct Download

Tags: DIXIEFROG, Records

Eric Bibb - Eric Bibb In 50 Songs (2014) [3CD] {DIXIEFROG Records} Download via Hotfile Rapidshare Fileserve Megaupload & FileSonic, Eric Bibb - Eric Bibb In 50 Songs (2014) [3CD] {DIXIEFROG Records} free torrent downloads included crack, serial, keygen.Eric Bibb - Eric Bibb In 50 Songs (2014) [3CD] {DIXIEFROG Records} Fast Download via Rapidshare Hotfile Fileserve Filesonic Megaupload, Eric Bibb - Eric Bibb In 50 Songs (2014) [3CD] {DIXIEFROG Records} Torrents and Emule Download or anything related.
Leave a Comment
Your Name:
E-Mail:
Add Comments:

Enter Code: