Miles Davis Quintet with John Coltrane - The 1960 German Concerts (2010) {Jazz Lips Music}

Download Now


Miles Davis Quintet with John Coltrane - The 1960 German Concerts (2010) {Jazz Lips Music}
Miles Davis Quintet with John Coltrane - The 1960 German Concerts (2010) {Jazz Lips Music}
XLD rip (secure mode) | FLAC (tracks)+CUE+LOG -> 311 Mb | MP3 @320 -> 144 Mb
Full Artwork @ 300 dpi (png) -> 22 Mb | 5% repair rar
© 2010 Jazz Lips Music | JL776
Jazz / Hard Bop / Post Bop / Modal Music / Trumpet / Saxophone

"This 2010 release presents two never before released performances in Germany by the great Miles Davis Quintet with John Coltrane. Among the highlights are three different extended performances of 'So What' (two sets were played at the first concert) and a new reading of the classic ''Round Midnight'."

Personnel:
Miles Davis (trumpet)
John Coltrane (tenor sax)
Wynton Kelly (piano)
Paul Chambers (bass)
Jimmy Cobb (drums)

Miles Davis Quintet with John Coltrane - The 1960 German Concerts (2010) {Jazz Lips Music}


tracklist:
01 - So What
02 - 'Round Midnight
03 - Walkin'
04 - So What (2nd Performance)
05 - All Of YOu
06 - So What (3rd Performance)

X Lossless Decoder version 20120609 (141.0)

XLD extraction logfile from 2012-08-25 11:48:29 +0200

Miles Davis Quintet / The 1960 German Concerts

Used drive : HL-DT-ST DVDRW GA32N (revision KE06)

Ripper mode : XLD Secure Ripper
Disable audio cache : OK for the drive with a cache less than 1375KiB
Make use of C2 pointers : NO
Read offset correction : 103
Max retry count : 100
Gap status : Analyzed, Appended (except HTOA)

TOC of the extracted CD
Track | Start | Length | Start sector | End sector
--1 | 00:00:00 | 10:36:22 | 0 | 47721 2 | 10:36:22 | 05:42:63 | 47722 | 73434 3 | 16:19:10 | 11:03:52 | 73435 | 123211 4 | 27:22:62 | 10:10:14 | 123212 | 168975 5 | 37:33:01 | 09:51:25 | 168976 | 213325 6 | 47:24:26 | 12:59:47 | 213326 | 271797

AccurateRip Summary
Disc not found in AccurateRip DB.

All Tracks
Album gain : -4.62 dB
Peak : 1.000000
StatisticsRead error : 0Jitter error (maybe fixed) : 0Retry sector count : 0Damaged sector count : 0

Track 01
Filename : /Users/Shared/Documents/Miles Davis Quintet with John Coltrane - The 1960 German Concerts (1960) [FLAC]/01 - So What.flac
Pre-gap length : 00:02:00 Track gain : -5.00 dB
Peak : 0.873352
CRC32 hash (test run) : 8B319F0D
CRC32 hash : 8B319F0D
CRC32 hash (skip zero) : 14AEA264
AccurateRip v1 signature : 76D98EFE
AccurateRip v2 signature : 2F57FE52->Track not present in AccurateRip database.
StatisticsRead error : 0Jitter error (maybe fixed) : 0Retry sector count : 0Damaged sector count : 0

Track 02
Filename : /Users/Shared/Documents/Miles Davis Quintet with John Coltrane - The 1960 German Concerts (1960) [FLAC]/02 - Round Midnight.flac Track gain : -1.32 dB
Peak : 0.802368
CRC32 hash (test run) : 92814005
CRC32 hash : 92814005
CRC32 hash (skip zero) : BDD10160
AccurateRip v1 signature : 2D5C1CB4
AccurateRip v2 signature : EA45CF60->Track not present in AccurateRip database.
StatisticsRead error : 0Jitter error (maybe fixed) : 0Retry sector count : 0Damaged sector count : 0

Track 03
Filename : /Users/Shared/Documents/Miles Davis Quintet with John Coltrane - The 1960 German Concerts (1960) [FLAC]/03 - Walkin.flac Track gain : -5.85 dB
Peak : 0.831512
CRC32 hash (test run) : 134643B7
CRC32 hash : 134643B7
CRC32 hash (skip zero) : 4D72A96F
AccurateRip v1 signature : 3FCF080E
AccurateRip v2 signature : F9F62854->Track not present in AccurateRip database.
StatisticsRead error : 0Jitter error (maybe fixed) : 0Retry sector count : 0Damaged sector count : 0

Track 04
Filename : /Users/Shared/Documents/Miles Davis Quintet with John Coltrane - The 1960 German Concerts (1960) [FLAC]/04 - So What (2nd Performance).flac Track gain : -2.73 dB
Peak : 1.000000
CRC32 hash (test run) : 894FAAD8
CRC32 hash : 894FAAD8
CRC32 hash (skip zero) : AACDDD73
AccurateRip v1 signature : EA11096B
AccurateRip v2 signature : 3E47E2D2->Track not present in AccurateRip database.
StatisticsRead error : 0Jitter error (maybe fixed) : 0Retry sector count : 0Damaged sector count : 0

Track 05
Filename : /Users/Shared/Documents/Miles Davis Quintet with John Coltrane - The 1960 German Concerts (1960) [FLAC]/05 - All Of You.flac Track gain : -4.43 dB
Peak : 0.909576
CRC32 hash (test run) : 16BDA0E3
CRC32 hash : 16BDA0E3
CRC32 hash (skip zero) : AF266797
AccurateRip v1 signature : BA909F7B
AccurateRip v2 signature : 96133059->Track not present in AccurateRip database.
StatisticsRead error : 0Jitter error (maybe fixed) : 0Retry sector count : 0Damaged sector count : 0

Track 06
Filename : /Users/Shared/Documents/Miles Davis Quintet with John Coltrane - The 1960 German Concerts (1960) [FLAC]/06 - So What (3rd Performance).flac Track gain : -2.69 dB
Peak : 0.853577
CRC32 hash (test run) : 4CC82F61
CRC32 hash : 4CC82F61
CRC32 hash (skip zero) : F1BE0CDB
AccurateRip v1 signature : DF6BAD20
AccurateRip v2 signature : 9806DBC0->Track not present in AccurateRip database.
StatisticsRead error : 0Jitter error (maybe fixed) : 0Retry sector count : 0Damaged sector count : 0

No errors occurred

End of status report

Miles Davis Quintet with John Coltrane - The 1960 German Concerts (2010) {Jazz Lips Music}

Miles Davis Quintet with John Coltrane - The 1960 German Concerts (2010) {Jazz Lips Music}


All thanks goes to the original releaser!
DOWNLOAD LINKS:


No Password
Direct Download

Tags: Quintet, Coltrane, German, Concerts

Miles Davis Quintet with John Coltrane - The 1960 German Concerts (2010) {Jazz Lips Music} Download via Hotfile Rapidshare Fileserve Megaupload & FileSonic, Miles Davis Quintet with John Coltrane - The 1960 German Concerts (2010) {Jazz Lips Music} free torrent downloads included crack, serial, keygen.Miles Davis Quintet with John Coltrane - The 1960 German Concerts (2010) {Jazz Lips Music} Fast Download via Rapidshare Hotfile Fileserve Filesonic Megaupload, Miles Davis Quintet with John Coltrane - The 1960 German Concerts (2010) {Jazz Lips Music} Torrents and Emule Download or anything related.
Leave a Comment
Your Name:
E-Mail:
Add Comments:

Enter Code: