Arvo Part - Creator Spiritus (2012) {Harmonia Mundi SACD Hybrid}

Download Now


Arvo Part - Creator Spiritus (2012) {Harmonia Mundi SACD Hybrid}
Arvo Part - Creator Spiritus (2012) {Harmonia Mundi SACD Hybrid}
EAC rip (secure mode) | FLAC (tracks)+CUE+LOG -> 283 Mb | MP3 @320 -> 185 Mb
Full Artwork @ 300 dpi (jpg) -> 69 Mb | 5% repair rar
© 2012 Harmonia Mundi | HMU 807553
Classical / Choral / Instrumental / Chamber Music

"The selections on this album of music by Estonian "holy minimalist" Arvo Pärt come from different phases of his career. One, the Solfeggio, dates from 1963, before Pärt abandoned serialism for his minimalist experiments; it was revised and simplified a good deal in 2008, however. The centerpiece (and finale), the Stabat Mater, was composed in 1985, and several of the shorter pieces date from the 2000s. The repertoire is divided between sacred choral pieces and short secular pieces of various kinds, all culminating in the giant, hypnotic, and virtually symmetrical Stabat Mater."

Arvo Part - Creator Spiritus (2012) {Harmonia Mundi SACD Hybrid}

"Conductor Paul Hillier, who despite the profusion of new recordings of Pärt is still tough to beat, structures the program so as to use various ensembles: his own small group Theatre of Voices (also including an organ), the larger Ars Nova Copenhagen, and the NYYD Quartet. This tunes the ear to the subtle contrasts that are essential to Pärt's often almost static later music, and the whole therefore gathers in intensity as it proceeds. There aren't really any examples of Pärt's tintinnabulation (bell-like) texture, bringing home the degree to which he has purified and simplified his music even as he, like Western minimalists, has readmitted some aspects of functional harmony. The sacred a cappella pieces emerge as a kind of timeless chant, akin to but quite different from traditional forms of Orthodox chant, and the starkly simple secular pieces function as interludes. Sample the unique setting of the English-language traditional ballad My Heart's in the Highlands (track 6), where the vocal part consists only of a single note. The cumulative effect is powerful indeed, and the musicians are backed up by superb engineering from Harmonia Mundi. If you are interested in the development of Pärt's music over time, you could hardly do better than this release."


Arvo Part - Creator Spiritus (2012) {Harmonia Mundi SACD Hybrid}


Personnel:
Chris Watson (tenor), Else Torp (soprano), Paul Hillier (baritone) & Christopher Bowers-Broadbent (organ)

Theatre of Voices
Ars Nova Copenhagen & NYYD Quartet
Paul Hillier
(artistic director)

Arvo Part - Creator Spiritus (2012) {Harmonia Mundi SACD Hybrid}


tracklist:
01 - Veni creator spiritus
02 - The Deer's Cry
03 - Psalom
04 - Most Holy Mother of God
05 - Solfeggio
06 - My heart's in the highlands
07 - Peace upon you, Jerusalem
08 - Ein Wallfahrtslied
09 - Morning Star
10 - Stabat Mater

Exact Audio Copy V1.0 beta 3 from 29. August 2011

EAC extraction logfile from 9. December 2012, 14:53

Arvo Part / Creator Spiritus

Used drive : HL-DT-STDVDRAM GSA-H10N Adapter: 6 ID: 0

Read mode : Secure
Utilize accurate stream : Yes
Defeat audio cache : Yes
Make use of C2 pointers : No

Read offset correction

: 667
Overread into Lead-In and Lead-Out : No
Fill up missing offset samples with silence : Yes
Delete leading and trailing silent blocks : No
Null samples used in CRC calculations : Yes
Used interface
: Native Win32 interface for Win NT & 2000
Gap handling
: Appended to previous track

Used output format : User Defined Encoder
Selected bitrate : 768 kBit/s
Quality : High
Add ID3 tag : No
Command line compressor : C:\Program Files (x86)\Exact Audio Copy\FLAC\FLAC.EXE
Additional command line options : -8 -V -T "ARTIST=%artist%" -T "TITLE=%title%" -T "ALBUM=%albumtitle%" -T "DATE=%year%" -T "TRACKNUMBER=%tracknr%" -T "TOTALTRACKS=%numtracks%" -T "GENRE=%genre%" -T "ALBUMARTIST=%albumartist%" -T "ALBUM ARTIST=%albumartist%" -T "COMMENT=EAC Secure Mode, Test & Copy, AccurateRip, FLAC -8" %source%

TOC of the extracted CD Track | Start | Length | Start sector | End sector
--1 | 0:00.00 | 3:19.67 | 0 | 14991 2 | 3:19.67 | 4:38.62 | 14992 | 35903 3 | 7:58.54 | 5:05.54 | 35904 | 58832 4 | 13:04.33 | 4:34.57 | 58833 | 79439 5 | 17:39.15 | 4:46.43 | 79440 | 100932 6 | 22:25.58 | 8:40.27 | 100933 | 139959 7 | 31:06.10 | 5:23.16 | 139960 | 164200 8 | 36:29.26 | 9:10.64 | 164201 | 205514 9 | 45:40.15 | 3:17.40 | 205515 | 220329
10 | 48:57.55 | 26:03.36 | 220330 | 337590

Track 1 Filename L:\eacrip\01 - Veni creator spiritus.wav Pre-gap length 0:00:02.00 Peak level 97.3 %
Extraction speed 4.3 X
Track quality 100.0 %
Test CRC A94D2EDB
Copy CRC A94D2EDB
Accurately ripped (confidence 3) [779C910B] (AR v2)
Copy OK

Track 2 Filename L:\eacrip\02 - The Deer's Cry.wav Peak level 97.7 %
Extraction speed 4.9 X
Track quality 100.0 %
Test CRC 7804A7BA
Copy CRC 7804A7BA
Accurately ripped (confidence 3) [8D1B2CF4] (AR v2)
Copy OK

Track 3 Filename L:\eacrip\03 - Psalom.wav Peak level 24.4 %
Extraction speed 5.4 X
Track quality 100.0 %
Test CRC 17358EE6
Copy CRC 17358EE6
Accurately ripped (confidence 3) [243BAEA0] (AR v2)
Copy OK

Track 4 Filename L:\eacrip\04 - Most Holy Mother of God.wav Peak level 49.2 %
Extraction speed 5.7 X
Track quality 100.0 %
Test CRC 3CDFC694
Copy CRC 3CDFC694
Accurately ripped (confidence 3) [F27964AD] (AR v2)
Copy OK

Track 5 Filename L:\eacrip\05 - Solfeggio.wav Peak level 56.3 %
Extraction speed 6.2 X
Track quality 100.0 %
Test CRC 29A821EA
Copy CRC 29A821EA
Accurately ripped (confidence 3) [E5E80D25] (AR v2)
Copy OK

Track 6 Filename L:\eacrip\06 - My heart's in the highlands.wav Peak level 44.2 %
Extraction speed 7.1 X
Track quality 100.0 %
Test CRC 45BCD69F
Copy CRC 45BCD69F
Accurately ripped (confidence 3) [74C56FE6] (AR v2)
Copy OK

Track 7 Filename L:\eacrip\07 - Peace upon you, Jerusalem.wav Peak level 100.0 %
Extraction speed 7.1 X
Track quality 100.0 %
Test CRC 2D44B861
Copy CRC 2D44B861
Accurately ripped (confidence 3) [10AA94C4] (AR v2)
Copy OK

Track 8 Filename L:\eacrip\08 - Ein Wallfahrtslied.wav Peak level 45.6 %
Extraction speed 8.1 X
Track quality 100.0 %
Test CRC 63B6A3F7
Copy CRC 63B6A3F7
Accurately ripped (confidence 3) [196DCF6F] (AR v2)
Copy OK

Track 9 Filename L:\eacrip\09 - Morning Star.wav Peak level 95.7 %
Extraction speed 6.2 X
Track quality 99.9 %
Test CRC 4F51C05E
Copy CRC 4F51C05E
Accurately ripped (confidence 3) [00982947] (AR v2)
Copy OK

Track 10 Filename L:\eacrip\10 - Stabat Mater.wav Peak level 99.7 %
Extraction speed 10.1 X
Track quality 100.0 %
Test CRC 314EFD14
Copy CRC 314EFD14
Accurately ripped (confidence 3) [1B14536A] (AR v2)
Copy OK

All tracks accurately ripped

No errors occurred

End of status report

==== Log checksum 079DC46641932F75FCE782E2D7CFAB69D4879DA9FFD57E2E6213DA7C20B2ECCC ====

Arvo Part - Creator Spiritus (2012) {Harmonia Mundi SACD Hybrid}

Arvo Part - Creator Spiritus (2012) {Harmonia Mundi SACD Hybrid}


DOWNLOAD LINKS
Buy Premium From My Links To Get Resumable Support & Max Speed & To Support Me


Links are Interchangeable - No Password - Single Extraction
Direct Download

Tags: Creator, Spiritus, Harmonia, Hybrid

Arvo Part - Creator Spiritus (2012) {Harmonia Mundi SACD Hybrid} Download via Hotfile Rapidshare Fileserve Megaupload & FileSonic, Arvo Part - Creator Spiritus (2012) {Harmonia Mundi SACD Hybrid} free torrent downloads included crack, serial, keygen.Arvo Part - Creator Spiritus (2012) {Harmonia Mundi SACD Hybrid} Fast Download via Rapidshare Hotfile Fileserve Filesonic Megaupload, Arvo Part - Creator Spiritus (2012) {Harmonia Mundi SACD Hybrid} Torrents and Emule Download or anything related.
Leave a Comment
Your Name:
E-Mail:
Add Comments:

Enter Code: