The Australian Jazz Quintet - The Australian Jazz Quintet +1 (1957) {2014 Japan Bethlehem Album Collection 1000}

Download Now


The Australian Jazz Quintet - The Australian Jazz Quintet +1 (1957) {2014 Japan Bethlehem Album Collection 1000}
The Australian Jazz Quintet - The Australian Jazz Quintet +1 (1957) {2014 Japan Bethlehem Album Collection 1000}
EAC rip (secure mode) | FLAC (tracks)+CUE+LOG -> 272 Mb | MP3 @320 -> 100 Mb
Full Artwork @ 600 dpi (png) -> 229 Mb | 5% repair rar
© 2014 Solid Records / Bethlehem | CDSOL-6144 | LP BCP-6015
Jazz / Cool / Vibes / Flute / Bassoon

"One of the coolest records ever from this unique Australian 50s group featuring the extended "Jazz In D Minor" suite. This '50s and '60s band was modeled on The Modern Jazz Quartet, and featured vibraphonist Jack Brokensha. I discovered these guys way back in the late 50's. I thought they were at least 50 years ahead of their time. The blend of of these instruments Bassoon and flute just blow my mind as they did the first time I heard them way back then. The amazing fact is that those sounds are still the coolest and up to date today. Like I said before, 50 years ahead of their time. They deserve 10 stars."

The Australian Jazz Quintet - The Australian Jazz Quintet +1 (1957) {2014 Japan Bethlehem Album Collection 1000}


Personnel:
Dick Healey - alto, flute
Errol Buddle - tenor, bassoon
Bryce Rohde - piano
Jack Brokensha - vibes
Jack Lander - bass
+
Osie Johnson - drums

tracklist:
01 - Jazz In D Minor - Part I - Medium
02 - Jazz In D Minor - Part II - Slow
03 - Jazz In D Minor - Part III - Medium
04 - Cubano Chant
05 - In A Sentimental Mood
06 - Star Eyes
07 - I'll Be Around
08 - You'd Be Nice To Come Home To

Exact Audio Copy V1.1 from 23. June 2015

EAC extraction logfile from 6. November 2015, 23:13

The Australian Jazz Quintet / The Australian Jazz Quintet +1

Used drive : TSSTcorpCDDVDW SE-208DB Adapter: 7 ID: 0

Read mode : Secure
Utilize accurate stream : Yes
Defeat audio cache : Yes
Make use of C2 pointers : No

Read offset correction

: 6
Overread into Lead-In and Lead-Out : No
Fill up missing offset samples with silence : Yes
Delete leading and trailing silent blocks : No
Null samples used in CRC calculations : Yes
Used interface
: Installed external ASPI interface
Gap handling
: Appended to previous track

Used output format : User Defined Encoder
Selected bitrate : 1024 kBit/s
Quality : High
Add ID3 tag : No
Command line compressor : C:\Program Files (x86)\FLAC Frontend\tools\flac.exe
Additional command line options : -8 -V -T "ARTIST=%artist%" -T "TITLE=%title%" -T "ALBUM=%albumtitle%" -T "DATE=%year%" -T "TRACKNUMBER=%tracknr%" -T "TOTALTRACKS=%numtracks%" -T "GENRE=%genre%" -T "ALBUMARTIST=%albumartist%" -T "ALBUM ARTIST=%albumartist%" -T "COMMENT=EAC Secure Mode, Test & Copy, AccurateRip, FLAC -8" %source%

TOC of the extracted CD Track | Start | Length | Start sector | End sector
--1 | 0:00.00 | 7:32.18 | 0 | 33917 2 | 7:32.18 | 7:15.20 | 33918 | 66562 3 | 14:47.38 | 7:14.46 | 66563 | 99158 4 | 22:02.09 | 4:40.20 | 99159 | 120178 5 | 26:42.29 | 3:51.33 | 120179 | 137536 6 | 30:33.62 | 3:40.53 | 137537 | 154089 7 | 34:14.40 | 3:38.45 | 154090 | 170484 8 | 37:53.10 | 3:57.62 | 170485 | 188321

Track 1 Filename M:\_EAC\The Australian Jazz Quintet - The Australian Jazz Quintet +1 (1957) [FLAC] {CDSOL-6144}\01 - Jazz In D Minor - Part I - Medium.wav Pre-gap length 0:00:02.00 Peak level 98.2 %
Extraction speed 1.1 X
Track quality 100.0 %
Test CRC 33EFF448
Copy CRC 33EFF448
Track not present in AccurateRip database
Copy OK

Track 2 Filename M:\_EAC\The Australian Jazz Quintet - The Australian Jazz Quintet +1 (1957) [FLAC] {CDSOL-6144}\02 - Jazz In D Minor - Part II - Slow.wav Peak level 98.2 %
Extraction speed 1.2 X
Track quality 99.9 %
Test CRC F958E1BB
Copy CRC F958E1BB
Track not present in AccurateRip database
Copy OK

Track 3 Filename M:\_EAC\The Australian Jazz Quintet - The Australian Jazz Quintet +1 (1957) [FLAC] {CDSOL-6144}\03 - Jazz In D Minor - Part III - Medium.wav Peak level 98.2 %
Extraction speed 1.4 X
Track quality 100.0 %
Test CRC 10B939F9
Copy CRC 10B939F9
Track not present in AccurateRip database
Copy OK

Track 4 Filename M:\_EAC\The Australian Jazz Quintet - The Australian Jazz Quintet +1 (1957) [FLAC] {CDSOL-6144}\04 - Cubano Chant.wav Peak level 98.2 %
Extraction speed 1.5 X
Track quality 100.0 %
Test CRC C27888D2
Copy CRC C27888D2
Track not present in AccurateRip database
Copy OK

Track 5 Filename M:\_EAC\The Australian Jazz Quintet - The Australian Jazz Quintet +1 (1957) [FLAC] {CDSOL-6144}\05 - In A Sentimental Mood.wav Peak level 98.2 %
Extraction speed 1.5 X
Track quality 100.0 %
Test CRC 9C43A468
Copy CRC 9C43A468
Track not present in AccurateRip database
Copy OK

Track 6 Filename M:\_EAC\The Australian Jazz Quintet - The Australian Jazz Quintet +1 (1957) [FLAC] {CDSOL-6144}\06 - Star Eyes.wav Peak level 98.3 %
Extraction speed 1.5 X
Track quality 100.0 %
Test CRC 75064DF0
Copy CRC 75064DF0
Track not present in AccurateRip database
Copy OK

Track 7 Filename M:\_EAC\The Australian Jazz Quintet - The Australian Jazz Quintet +1 (1957) [FLAC] {CDSOL-6144}\07 - I'll Be Around.wav Peak level 98.2 %
Extraction speed 1.6 X
Track quality 100.0 %
Test CRC 5AE9EE5A
Copy CRC 5AE9EE5A
Track not present in AccurateRip database
Copy OK

Track 8 Filename M:\_EAC\The Australian Jazz Quintet - The Australian Jazz Quintet +1 (1957) [FLAC] {CDSOL-6144}\08 - You'd Be Nice To Come Home To.wav Peak level 98.2 %
Extraction speed 1.6 X
Track quality 100.0 %
Test CRC F265BAA9
Copy CRC F265BAA9
Track not present in AccurateRip database
Copy OK

None of the tracks are present in the AccurateRip database

No errors occurred

End of status report

==== Log checksum 838BFD66B81C906C9D97921DF495689427CD3C18D1519AAE5C19C1C8E270FE56 ====

The Australian Jazz Quintet - The Australian Jazz Quintet +1 (1957) {2014 Japan Bethlehem Album Collection 1000}

The Australian Jazz Quintet - The Australian Jazz Quintet +1 (1957) {2014 Japan Bethlehem Album Collection 1000}






NEXT -> More 2014 Japan Bethlehem Album Collection 1000 Remasters...
DOWNLOAD LINKS
(Premium Recommended)


Links are Interchangeable - No Password - Single Extraction
Direct Download

Tags: Australian, Quintet, Australian, Quintet, Bethlehem, Collection

The Australian Jazz Quintet - The Australian Jazz Quintet +1 (1957) {2014 Japan Bethlehem Album Collection 1000} Download via Hotfile Rapidshare Fileserve Megaupload & FileSonic, The Australian Jazz Quintet - The Australian Jazz Quintet +1 (1957) {2014 Japan Bethlehem Album Collection 1000} free torrent downloads included crack, serial, keygen.The Australian Jazz Quintet - The Australian Jazz Quintet +1 (1957) {2014 Japan Bethlehem Album Collection 1000} Fast Download via Rapidshare Hotfile Fileserve Filesonic Megaupload, The Australian Jazz Quintet - The Australian Jazz Quintet +1 (1957) {2014 Japan Bethlehem Album Collection 1000} Torrents and Emule Download or anything related.
Leave a Comment
Your Name:
E-Mail:
Add Comments:

Enter Code: