The Sensational Alex Harvey Band - The Impossible Dream (1974) & Tomorrow Belongs To Me (1975) [2002, Remastered]

Download Now

The Sensational Alex Harvey Band - The Impossible Dream (1974) & Tomorrow Belongs To Me (1975) [2002, Remastered]

The Sensational Alex Harvey Band - The Impossible Dream (1974) & Tomorrow Belongs To Me (1975) [2002]
EAC Rip | FLAC (Img) + Cue + Log ~ 549 Mb | MP3 CBR320 ~ 198 Mb
Scans (JPG, 600 dpi) ~ 102 Mb | RAR 5% Recovery
Classic/Glam/Hard/Blues/Psychedelic Rock | Mercury #984 883-7

"Combining the Sensational Alex Harvey Band's third and fourth albums, The Impossible Dream and Tomorrow Belongs To Me, offers perhaps the archetypal vision of Alex Harvey, as his long-nurtured alter-ego, the comic book hero Vambo, finally burst out of imagination to take on a life of his own on stages across the world. Yet what would become the group's most successful albums also stand as their patchiest..."

Wiki | Discogs | All Music
***************

The Sensational Alex Harvey Band - The Impossible Dream (1974) & Tomorrow Belongs To Me (1975) [2002, Remastered]

The Sensational Alex Harvey Band - The Impossible Dream (1974) & Tomorrow Belongs To Me (1975) [2002, Remastered]

Track List - The Impossible Dream (1974):

01. The Hot City Symphony - Pt 1 - Vambo [05:04]
02. The Hot City Symphony - Pt 2 - Man In The Jar [08:15]
03. River Of Love [03:13]
04. Long Hair Music [04:38]
05. Hey [00:40]
06. Sergeant Fury [03:30]
07. Weights Made Of Lead [02:42]
08. Money Honey - Impossible Dream [02:11]
09. Tomahawk Kid [04:35]
10. Anthem [07:46]

Exact Audio Copy V1.0 beta 1 from 15. November 2010

EAC extraction logfile from 8. November 2015, 11:02

The Sensational Alex Harvey Band / The Impossible Dream

Used drive : MATSHITADVD-RAM UJ8A0AS Adapter: 0 ID: 1

Read mode : Secure
Utilize accurate stream : Yes
Defeat audio cache : Yes
Make use of C2 pointers : No

Read offset correction

: 102
Overread into Lead-In and Lead-Out : No
Fill up missing offset samples with silence : Yes
Delete leading and trailing silent blocks : No
Null samples used in CRC calculations : Yes
Used interface
: Native Win32 interface for Win NT & 2000

Used output format : Internal WAV Routines
Sample format : 44.100 Hz; 16 Bit; Stereo

TOC of the extracted CD Track | Start | Length | Start sector | End sector
--1 | 0:00.00 | 5:03.71 | 0 | 22795 2 | 5:03.71 | 8:14.14 | 22796 | 59859 3 | 13:18.10 | 3:12.05 | 59860 | 74264 4 | 16:30.15 | 4:37.19 | 74265 | 95058 5 | 21:07.34 | 0:39.33 | 95059 | 98016 6 | 21:46.67 | 3:29.02 | 98017 | 113693 7 | 25:15.69 | 2:41.32 | 113694 | 125800 8 | 27:57.26 | 2:10.34 | 125801 | 135584 9 | 30:07.60 | 4:34.58 | 135585 | 156192
10 | 34:42.43 | 7:45.07 | 156193 | 191074

Range status and errors

Selected range Filename C:\Users\Alex\Music\Alexharvey\The Sensational Alex Harvey Band - The Impossible Dream.wav Peak level 93.5 %
Extraction speed 0.2 X
Range quality 100.0 %
Test CRC 6B58462A
Copy CRC 6B58462A
Copy OK

No errors occurred


AccurateRip summary

Track 1 accurately ripped (confidence 8) [CB42037D]
Track 2 accurately ripped (confidence 8) [9B00F166]
Track 3 accurately ripped (confidence 8) [AA8944E4]
Track 4 accurately ripped (confidence 8) [8CBF0604]
Track 5 accurately ripped (confidence 8) [DB5A98A6]
Track 6 accurately ripped (confidence 8) [710D2AEA]
Track 7 accurately ripped (confidence 8) [E2E8451C]
Track 8 accurately ripped (confidence 8) [F97A6EAE]
Track 9 accurately ripped (confidence 8) [8D04862B]
Track 10 accurately ripped (confidence 8) [912682D7]

All tracks accurately ripped

End of status report

==== Log checksum C0D60E5E0BFF19342A098A38B25A13069380E98A3F4346DCC370D4B395DD53C0 ====

foobar2000 1.2.6 / Dynamic Range Meter 1.1.1
log date: 2015-11-09 14:39:50

Analyzed: The Sensational Alex Harvey Band / The Impossible Dream

DR Peak RMS Duration Track

DR9 -0.80 dB -12.19 dB 5:04 01-The Hot City Symphony - Pt 1 - Vambo
DR11 -0.90 dB -15.13 dB 8:14 02-The Hot City Symphony - Pt 2 - Man In The Jar
DR11 -0.90 dB -14.68 dB 3:12 03-River Of Love
DR10 -0.71 dB -13.12 dB 4:37 04-Long Hair Music
DR11 -2.10 dB -20.45 dB 0:39 05-Hey
DR10 -0.62 dB -12.72 dB 3:29 06-Sergeant Fury
DR11 -0.80 dB -14.75 dB 2:41 07-Weights Made Of Lead
DR10 -1.02 dB -13.30 dB 2:10 08-Money Honey - Impossible Dream
DR11 -1.37 dB -16.33 dB 4:35 09-Tomahawk Kid
DR10 -0.58 dB -14.43 dB 7:45 10-Anthem

Number of tracks: 10
Official DR value: DR10

Samplerate: 44100 Hz
Channels: 2
Bits per sample: 16
Bitrate: 921 kbps
Codec: FLAC

[CUETools log; Date: 09.11.2015 14:39:56; Version: 2.1.5]
[CTDB TOCID: N9yUd8ZswZgUKdZbKu2Cs4egYe8-] found.
Track | CTDB Status
1 | (9/9) Accurately ripped
2 | (9/9) Accurately ripped
3 | (9/9) Accurately ripped
4 | (9/9) Accurately ripped
5 | (9/9) Accurately ripped
6 | (9/9) Accurately ripped
7 | (9/9) Accurately ripped
8 | (9/9) Accurately ripped
9 | (9/9) Accurately ripped
10 | (9/9) Accurately ripped
[AccurateRip ID: 00105cd9-007e382c-8909f30a] found.
Track [ CRC | V2 ] Status
01 [cb42037d|54d840c5] (05+08/35) Accurately ripped
02 [9b00f166|d8796abb] (05+08/36) Accurately ripped
03 [aa8944e4|66315e2f] (05+08/35) Accurately ripped
04 [8cbf0604|56d396ee] (05+08/36) Accurately ripped
05 [db5a98a6|9f0c1957] (05+08/35) Accurately ripped
06 [710d2aea|a1a99d71] (05+08/35) Accurately ripped
07 [e2e8451c|d7126568] (05+08/35) Accurately ripped
08 [f97a6eae|4fb591bc] (05+08/35) Accurately ripped
09 [8d04862b|4f54f970] (05+08/35) Accurately ripped
10 [912682d7|89f91b8c] (05+08/34) Accurately ripped
Offsetted by 664:
01 [ec61348c] (07/35) Accurately ripped
02 [8ff734f7] (07/36) Accurately ripped
03 [0879a0f4] (07/35) Accurately ripped
04 7d1538c (07/36) Accurately ripped
05 [af1b0b6e] (07/35) Accurately ripped
06 [8d758222] (07/35) Accurately ripped
07 [8877c82c] (07/35) Accurately ripped
08 [74c1257e] (07/35) Accurately ripped
09 [63532e93] (07/35) Accurately ripped
10 [5ade46c7] (06/34) Accurately ripped

Track Peak [ CRC32 ] [W/O NULL] [ LOG ]
-- 93,5 [6B58462A] [6F054DD1] CRC32
01 91,2 [970121E9] [4CE952E7]
02 90,1 CE73BCC [61338B1B]
03 90,1 1B3B6DE [7EE1CBB8]
04 92,1 [878AA57D] [92BC8E4C]
05 78,5 [C79608F2] [D723FFB0]
06 93,1 154375A [AC376457]
07 91,2 [4839BF4E] [9D8E7B42]
08 88,9 [CE9325FE] [360C176E]
09 85,4 [0FE25FAD] [E70660CB]
10 93,5 [59FC5C51] [446F49BA]

The Sensational Alex Harvey Band - The Impossible Dream (1974) & Tomorrow Belongs To Me (1975) [2002, Remastered]

The Sensational Alex Harvey Band - The Impossible Dream (1974) & Tomorrow Belongs To Me (1975) [2002, Remastered]

Track List - Tomorrow Belongs To Me (1975):

01. Action Strasse [03:18]
02. Snake Bite [03:58]
03. Soul In Chains [03:56]
04. The Tale Of The Giant Stone Eater [07:21]
05. Ribs And Balls [01:55]
06. Give My Compliments To The Chef [05:34]
07. Sharks Teeth [04:56]
08. Shake That Thing [04:07]
09. Tomorrow Belongs To Me [03:47]
10. To Be Continued [00:57]

Exact Audio Copy V1.0 beta 1 from 15. November 2010

EAC extraction logfile from 8. November 2015, 12:15

The Sensational Alex Harvey Band / Tomorrow Belongs To Me

Used drive : MATSHITADVD-RAM UJ8A0AS Adapter: 0 ID: 1

Read mode : Secure
Utilize accurate stream : Yes
Defeat audio cache : Yes
Make use of C2 pointers : No

Read offset correction

: 102
Overread into Lead-In and Lead-Out : No
Fill up missing offset samples with silence : Yes
Delete leading and trailing silent blocks : No
Null samples used in CRC calculations : Yes
Used interface
: Native Win32 interface for Win NT & 2000

Used output format : Internal WAV Routines
Sample format : 44.100 Hz; 16 Bit; Stereo

TOC of the extracted CD Track | Start | Length | Start sector | End sector
--1 | 0:00.00 | 3:17.26 | 0 | 14800 2 | 3:17.26 | 3:57.65 | 14801 | 32640 3 | 7:15.16 | 3:55.09 | 32641 | 50274 4 | 11:10.25 | 7:20.03 | 50275 | 83277 5 | 18:30.28 | 1:54.26 | 83278 | 91853 6 | 20:24.54 | 5:33.57 | 91854 | 116885 7 | 25:58.36 | 4:55.42 | 116886 | 139052 8 | 30:54.03 | 4:06.38 | 139053 | 157540 9 | 35:00.41 | 3:46.23 | 157541 | 174513
10 | 38:46.64 | 0:56.40 | 174514 | 178753

Range status and errors

Selected range Filename C:\Users\Alex\Music\Alexharvey\The Sensational Alex Harvey Band - Tomorrow Belongs To Me.wav Peak level 94.3 %
Extraction speed 0.0 X
Range quality 100.0 %
Test CRC A0F50B19
Copy CRC A0F50B19
Copy OK

No errors occurred


AccurateRip summary

Track 1 accurately ripped (confidence 6) [8350ABB2]
Track 2 accurately ripped (confidence 6) [F5DD00FA]
Track 3 accurately ripped (confidence 6) [AD7A42E7]
Track 4 accurately ripped (confidence 6) [661C70C5]
Track 5 accurately ripped (confidence 6) [FDD75268]
Track 6 accurately ripped (confidence 6) [E45506F9]
Track 7 accurately ripped (confidence 6) [1E191B87]
Track 8 accurately ripped (confidence 6) [88A9B27C]
Track 9 accurately ripped (confidence 6) [3797B5FC]
Track 10 accurately ripped (confidence 6) [AA4C54B4]

All tracks accurately ripped

End of status report

==== Log checksum ADCA683F4363CB954A74805189A0F3060399520EE8257D0A2D021F353908498E ====

foobar2000 1.2.6 / Dynamic Range Meter 1.1.1
log date: 2015-11-09 14:41:04

Analyzed: The Sensational Alex Harvey Band / Tomorrow Belongs To Me

DR Peak RMS Duration Track

DR8 -0.93 dB -11.95 dB 3:17 01-Action Strasse
DR9 -0.75 dB -12.93 dB 3:58 02-Snake Bite
DR10 -0.98 dB -14.53 dB 3:55 03-Soul In Chains
DR9 -1.12 dB -13.19 dB 7:20 04-The Tale Of The Giant Stone Eater
DR10 -0.79 dB -12.22 dB 1:54 05-Ribs And Balls
DR9 -0.58 dB -11.78 dB 5:34 06-Give My Compliments To The Chef
DR10 -0.79 dB -13.18 dB 4:56 07-Sharks Teeth
DR9 -1.00 dB -13.11 dB 4:07 08-Shake That Thing
DR10 -0.51 dB -14.03 dB 3:46 09-Tomorrow Belongs To Me
DR10 -1.33 dB -14.92 dB 0:57 10-To Be Continued

Number of tracks: 10
Official DR value: DR9

Samplerate: 44100 Hz
Channels: 2
Bits per sample: 16
Bitrate: 854 kbps
Codec: FLAC

[CUETools log; Date: 09.11.2015 14:41:02; Version: 2.1.5]
[CTDB TOCID: Y2Wv7pAhO.t7mJ71_0V3KhZNok4-] found.
Track | CTDB Status
1 | (9/9) Accurately ripped
2 | (9/9) Accurately ripped
3 | (9/9) Accurately ripped
4 | (9/9) Accurately ripped
5 | (9/9) Accurately ripped
6 | (9/9) Accurately ripped
7 | (9/9) Accurately ripped
8 | (9/9) Accurately ripped
9 | (9/9) Accurately ripped
10 | (9/9) Accurately ripped
[AccurateRip ID: 000fdced-007f80e5-76094f0a] found.
Track [ CRC | V2 ] Status
01 [8350abb2|5e1bfa32] (03+06/36) Accurately ripped
02 [f5dd00fa|7cdf04b1] (03+06/36) Accurately ripped
03 [ad7a42e7|8aae0679] (03+06/35) Accurately ripped
04 [661c70c5|054f9432] (03+06/35) Accurately ripped
05 [fdd75268|05e22104] (03+06/36) Accurately ripped
06 [e45506f9|757c9883] (03+06/36) Accurately ripped
07 [1e191b87|ab0d7faf] (03+06/37) Accurately ripped
08 [88a9b27c|5512c577] (03+06/35) Accurately ripped
09 [3797b5fc|d18e799b] (03+06/35) Accurately ripped
10 [aa4c54b4|76bb0851] (03+06/37) Accurately ripped
Offsetted by 664:
01 [481c2b9a] (08/36) Accurately ripped
02 [665722d2] (08/36) Accurately ripped
03 [3f8d44ff] (08/35) Accurately ripped
04 [e5e7d020] (08/35) Accurately ripped
05 ab39131 (08/36) Accurately ripped
06 [db33d4f1] (08/36) Accurately ripped
07 [05caebf7] (09/37) Accurately ripped
08 [50d924b4] (08/35) Accurately ripped
09 [c1d1f153] (08/35) Accurately ripped
10 [587ba729] (08/37) Accurately ripped

Track Peak [ CRC32 ] [W/O NULL] [ LOG ]
-- 94,3 [A0F50B19] [916A92DD] CRC32
01 89,8 [090A2FE0] [9C3570C9]
02 91,6 [0645FB7C] [55335F5D]
03 89,3 [8184C2E6] [6E0835F2]
04 87,8 [6CA604EF] [C8215017]
05 91,2 [4CD4041D] [87ABAB9E]
06 93,5 [1260C5FC] [A6D60C41]
07 91,3 [F1E347A5] [8397798D]
08 89,1 [78D1AF56] [96D2E70C]
09 94,3 [CB93E558] [C16E72FE]
10 85,7 [68D449CE] [71444538]

The Sensational Alex Harvey Band - The Impossible Dream (1974) & Tomorrow Belongs To Me (1975) [2002, Remastered]



DOWNLOAD LINKS
Buy Premium From My Links To Get Resumable Support & Max Speed & To Support Me


Links are Interchangeable - No Password - Single Extraction
Direct Download

Tags: Sensational, Harvey, Impossible, Tomorrow, Belongs, Remastered

The Sensational Alex Harvey Band - The Impossible Dream (1974) & Tomorrow Belongs To Me (1975) [2002, Remastered] Download via Hotfile Rapidshare Fileserve Megaupload & FileSonic, The Sensational Alex Harvey Band - The Impossible Dream (1974) & Tomorrow Belongs To Me (1975) [2002, Remastered] free torrent downloads included crack, serial, keygen.The Sensational Alex Harvey Band - The Impossible Dream (1974) & Tomorrow Belongs To Me (1975) [2002, Remastered] Fast Download via Rapidshare Hotfile Fileserve Filesonic Megaupload, The Sensational Alex Harvey Band - The Impossible Dream (1974) & Tomorrow Belongs To Me (1975) [2002, Remastered] Torrents and Emule Download or anything related.
Leave a Comment
Your Name:
E-Mail:
Add Comments:

Enter Code: