Mozart - Die Entfuhrung aus dem Serail (John Eliot Gardiner) [2005]

Download Now

Mozart - Die Entfuhrung aus dem Serail (John Eliot Gardiner) [2005]


Mozart - Die Entfuhrung aus dem Serail (John Eliot Gardiner) [2005]
EAC Rip | FLAC, IMG+CUE, LOG | Scans | 2cd, 543.28 MB
Classical | Label: Archiv | Catalog Number: 00289 477 5593

" This recording of Mozart's first German opera The Abduction From The Seraglio is also on another box set/label and has been re-issued for Deutsche Grammophone, the world's greatest classical music and opera label. The Brit Sir Jon Elio Gardiner conducts at a brisk, lively pace (too fast for some folks) and the principal singers sing with excellent German diction and in the traditional Singspiel style but lack a je ne sais quai to really stand out. Tenor Stanford Olsen sings Belmonte, baritone Hans Peter Minetti as Pasha Selim, soprano Luba Orgonasova as Konstanze, soprano Cyndia Sieden as Blonde, Uwe Peper as Pedrillo and bass Cornelius Hauptmann as Osmin. If you're a fan of any of these singers, this recording is for you... "

Tracklisting:
CD1
01. Ouvertüre
02. Erster Aufzug. Arie: Hier soll ich dich denn sehen (Belmonte)
03. Lied und Duett: Wer ein Liebchen hat gefunden (Osmin, Belmonte)
04. Nun, wie steht's Osmin? (Pedrillo, Osmin)
05. Arie: Solche hergelaufne Laffen (Osmin, Pedrillo)
06. Geh nur, verwünschter Aufpasser (Pedrillo, Belmonte)
07. Rezitativ und Arie: Konstanze, dich wiederzusehen! (Belmonte)
08. Herr, geschwind auf die Seite (Pedrillo)
09. Chor: Singt dem großen Bassa Lieder
10. Immer noch traurig, geliebte Konstanze? (Selim, Konstanze)
11. Arie: Ach ich liebte, war so glücklich (Konstanze)
12. Du bist so großmütig, so gut (Konstanze, Selim, Pedrillo, Belmonte)
13. Terzett: Marsch, marsch, marsch! (Selim, Belmonte, Pedrillo)
14. Zweiter Aufzug. Gift und Dolch! (Osmin, Blonde)
15. Zärtlichkeit! Schmeicheln! (Osmin, Blonde)
16. Duett: Ich gehe, doch rate ich dir (Osmin, Blonde)
17. Wie traurig Konstanze daherkommt! (Blonde)
18. Ach, mein bestes Fräulein! (Blonde, Konstanze)
19. Arie: Martern aller Arten (Konstanze)
20. Ist das ein Traum? (Selim)
CD2
01. Bst, bst! Blondchen! (Selim, Pedrillo, Blonde)
02. Arie: Welche Wonne, welche Lust (Blonde)
03. Ah, dass es schon vorbei wäre! (Pedrillo)
04. Ha! Geht's hier so lustig zu? (Osmin, Pedrillo)
05. Duett: Vivat Bacchus! Bacchus lebe! (Pedrillo, Osmin)
06. Wein - das ist wahr - Wein (Osmin, Pedrillo)
07. Arie: Wenn der Freude Tränen fließen (Belmonte)
08. Quartett: Ach, Belmonte! Ach, mein Leben! (Konstanze, Belmonte, Pedrillo, Blonde)
09. Dritter Aufzug. Pedrillo! Pedrillo! (Belmonte, Pedrillo)
10. Arie: Ich baue ganz auf deine Stärke (Belmonte)
11. Alles liegt auf dem Ohr (Pedrillo, Belmonte)
12. Sie macht auf, Herr! (Pedrillo, Belmonte, Konstanze)
13. Arie: O, wie will ich triumphieren (Osmin)
14. Was gibt's Osmin, was gibt's? (Selim, Osmin, Konstanze, Belmonte)
15. Rezitativ und Duett: Welch ein Geschick! (Belmonte, Konstanze)
16. Nun, Sklave! Erwartest du dein Urteil? (Selim, Belmonte, Konstanze, Pedrillo, Osmin)
17. Finale. Vaudeville: Nie werd' ich deine Huld verkennen (Tutti)

Exact Audio Copy V1.0 beta 1 from 15. November 2010

EAC extraction logfile from 4. October 2011, 17:26

John Eliot Gardiner, H.-P.Minetti, S.Olsen, L.Orgonasova, C.Sieden, U.Peper / Mozart - Die Entfuhrung aus dem Serail CD1

Used drive : PIONEER DVD-RW DVR-218L Adapter: 1 ID: 0

Read mode : Secure
Utilize accurate stream : Yes
Defeat audio cache : Yes
Make use of C2 pointers : No

Read offset correction

: 6
Overread into Lead-In and Lead-Out : No
Fill up missing offset samples with silence : Yes
Delete leading and trailing silent blocks : No
Null samples used in CRC calculations : Yes
Used interface
: Native Win32 interface for Win NT & 2000

Used output format : User Defined Encoder
Selected bitrate : 192 kBit/s
Quality : High
Add ID3 tag : No
Command line compressor : C:\Program Files\Exact Audio Copy\Flac\flac.exe
Additional command line options : -T "DATE=%y" -T "GENRE=%m" -8 -V %s

TOC of the extracted CD Track | Start | Length | Start sector | End sector
--1 | 0:00.33 | 4:17.00 | 33 | 19307 2 | 4:17.33 | 2:39.15 | 19308 | 31247 3 | 6:56.48 | 6:23.22 | 31248 | 59994 4 | 13:19.70 | 0:21.05 | 59995 | 61574 5 | 13:41.00 | 4:50.70 | 61575 | 83394 6 | 18:31.70 | 1:57.58 | 83395 | 92227 7 | 20:29.53 | 5:01.55 | 92228 | 114857 8 | 25:31.33 | 1:58.55 | 114858 | 123762 9 | 27:30.13 | 1:34.07 | 123763 | 130819
10 | 29:04.20 | 0:37.13 | 130820 | 133607
11 | 29:41.33 | 4:53.50 | 133608 | 155632
12 | 34:35.08 | 2:39.70 | 155633 | 167627
13 | 37:15.03 | 2:22.30 | 167628 | 178307
14 | 39:37.33 | 4:41.07 | 178308 | 199389
15 | 44:18.40 | 0:46.58 | 199390 | 202897
16 | 45:05.23 | 3:31.10 | 202898 | 218732
17 | 48:36.33 | 9:27.00 | 218733 | 261257
18 | 58:03.33 | 0:53.50 | 261258 | 265282
19 | 58:57.08 | 9:25.25 | 265283 | 307682
20 | 68:22.33 | 0:42.37 | 307683 | 310869

Range status and errors

Selected range Filename C:\Mozart - Die Entfuhrung aus dem Serail CD1.wav Peak level 93.0 %
Extraction speed 0.0 X
Range quality 100.0 %
Test CRC F27EC1B0
Copy CRC F27EC1B0
Copy OK

No errors occurred


AccurateRip summary

Track 1 accurately ripped (confidence 3) B18E1A2
Track 2 accurately ripped (confidence 3) [1A561898]
Track 3 accurately ripped (confidence 3) [9377EA2A]
Track 4 accurately ripped (confidence 3) [6919460D]
Track 5 accurately ripped (confidence 3) [23C44E4B]
Track 6 accurately ripped (confidence 3) [4A0B1EF2]
Track 7 accurately ripped (confidence 3) [4D2E3C65]
Track 8 accurately ripped (confidence 3) [46079B4B]
Track 9 accurately ripped (confidence 3) [36FF1F08]
Track 10 accurately ripped (confidence 3) [1345B002]
Track 11 accurately ripped (confidence 3) [6DA3858A]
Track 12 accurately ripped (confidence 3) [7B601A07]
Track 13 accurately ripped (confidence 3) [4889B1EA]
Track 14 accurately ripped (confidence 3) [17DB3330]
Track 15 accurately ripped (confidence 3) [793594B8]
Track 16 accurately ripped (confidence 3) [49F3D9E6]
Track 17 accurately ripped (confidence 3) [C8BA4214]
Track 18 accurately ripped (confidence 3) [531DFDC9]
Track 19 accurately ripped (confidence 3) [461FDC09]
Track 20 accurately ripped (confidence 3) [7F5D76C9]

All tracks accurately ripped

End of status report

==== Log checksum 89B0EC6CAAF5B09A7A0B93491BF66AE3DC48552B78496D9BD663CD4E590890FE ====



Exact Audio Copy V1.0 beta 1 from 15. November 2010

EAC extraction logfile from 4. October 2011, 19:17

John Eliot Gardiner, H.-P.Minetti, S.Olsen, L.Orgonasova, C.Sieden, U.Peper / Mozart - Die Entfuhrung aus dem Serail CD2

Used drive : PIONEER DVD-RW DVR-218L Adapter: 1 ID: 0

Read mode : Secure
Utilize accurate stream : Yes
Defeat audio cache : Yes
Make use of C2 pointers : No

Read offset correction

: 6
Overread into Lead-In and Lead-Out : No
Fill up missing offset samples with silence : Yes
Delete leading and trailing silent blocks : No
Null samples used in CRC calculations : Yes
Used interface
: Native Win32 interface for Win NT & 2000

Used output format : User Defined Encoder
Selected bitrate : 192 kBit/s
Quality : High
Add ID3 tag : No
Command line compressor : C:\Program Files\Exact Audio Copy\Flac\flac.exe
Additional command line options : -T "DATE=%y" -T "GENRE=%m" -8 -V %s

TOC of the extracted CD Track | Start | Length | Start sector | End sector
--1 | 0:00.00 | 1:20.14 | 0 | 6013 2 | 1:20.14 | 2:46.65 | 6014 | 18528 3 | 4:07.04 | 3:20.40 | 18529 | 33568 4 | 7:27.44 | 1:19.45 | 33569 | 39538 5 | 8:47.14 | 2:03.22 | 39539 | 48785 6 | 10:50.36 | 1:52.35 | 48786 | 57220 7 | 12:42.71 | 6:54.18 | 57221 | 88288 8 | 19:37.14 | 10:04.24 | 88289 | 133612 9 | 29:41.38 | 0:31.13 | 133613 | 135950
10 | 30:12.51 | 6:14.63 | 135951 | 164063
11 | 36:27.39 | 3:06.63 | 164064 | 178076
12 | 39:34.27 | 1:39.49 | 178077 | 185550
13 | 41:14.01 | 3:21.13 | 185551 | 200638
14 | 44:35.14 | 2:20.25 | 200639 | 211163
15 | 46:55.39 | 9:44.00 | 211164 | 254963
16 | 56:39.39 | 2:03.00 | 254964 | 264188
17 | 58:42.39 | 4:52.74 | 264189 | 286162

Range status and errors

Selected range Filename C:\Mozart - Die Entfuhrung aus dem Serail CD2.wav Peak level 95.1 %
Extraction speed 0.1 X
Range quality 100.0 %
Test CRC 9AF1040A
Copy CRC 9AF1040A
Copy OK

No errors occurred


AccurateRip summary

Track 1 accurately ripped (confidence 2) DC42BA5
Track 2 accurately ripped (confidence 2) [1C1AE182]
Track 3 accurately ripped (confidence 2) [41F129B5]
Track 4 accurately ripped (confidence 2) [9956F031]
Track 5 accurately ripped (confidence 2) [009B080A]
Track 6 accurately ripped (confidence 2) 214818F
Track 7 accurately ripped (confidence 2) [DC862806]
Track 8 accurately ripped (confidence 2) [00BFCAF8]
Track 9 accurately ripped (confidence 2) [0999BA8E]
Track 10 accurately ripped (confidence 2) [398F247A]
Track 11 accurately ripped (confidence 2) [82F29707]
Track 12 accurately ripped (confidence 2) [2CBAC3AB]
Track 13 accurately ripped (confidence 2) [9D2F4223]
Track 14 accurately ripped (confidence 2) [01EC96ED]
Track 15 accurately ripped (confidence 2) [C6C762C0]
Track 16 accurately ripped (confidence 2) [6F130CF7]
Track 17 accurately ripped (confidence 2) [CB4D93A1]

All tracks accurately ripped

End of status report

==== Log checksum 59E2DD3936D3DEDBF799D23FA9C23EAAFAA5956F010E47621A5130D6E3392401 ====


Performer:
Selim - Hans-Peter Minetti
Belmonte - Stanford Olsen
Konstanze - Luba Orgonasova
Blonde - Cyndia Sieden
Pedrillo - Uwe Peper
Osmin - Cornelius Hauptmann
Monteverdi Choir
English Baroque Soloists
Conductor - John Eliot Gardiner
DOWNLOAD LINKS
Buy Premium From My Links To Get Resumable Support & Max Speed & To Support Me


Links are Interchangeable - No Password - Single Extraction
Direct Download

Tags: Mozart, Entfuhrung, Serail, Gardiner

Mozart - Die Entfuhrung aus dem Serail (John Eliot Gardiner) [2005] Download via Hotfile Rapidshare Fileserve Megaupload & FileSonic, Mozart - Die Entfuhrung aus dem Serail (John Eliot Gardiner) [2005] free torrent downloads included crack, serial, keygen.Mozart - Die Entfuhrung aus dem Serail (John Eliot Gardiner) [2005] Fast Download via Rapidshare Hotfile Fileserve Filesonic Megaupload, Mozart - Die Entfuhrung aus dem Serail (John Eliot Gardiner) [2005] Torrents and Emule Download or anything related.
Leave a Comment
Your Name:
E-Mail:
Add Comments:

Enter Code: