Britny Fox - Boys In Heat (1989)

Download Now

Britny Fox - Boys In Heat (1989)

Britny Fox - Boys In Heat (1989)
EAC Rip | FLAC (Img) + Cue + Log ~ 370 Mb | MP3 CBR320 ~ 123 Mb
Scans (JPG, 600 dpi) ~ 36 Mb | RAR 5% Recovery
Hard Rock, Glam Metal | CBS #465954 2

"Britny Fox is an American glam metal band from the Philadelphia, Pennsylvania area, initially active from 1985 to 1992 then subsequently reforming from 2000 to 2009 and then again reforming in 2015. They are best known for their music video for "Girlschool" and their minor hit "Long Way to Love" (U.S. No. 100). Boys in Heat is the second album by Britny Fox, released in 1989. After this album, singer "Dizzy" Dean Davidson left the group and formed the band "Blackeyed Susan". He was replaced in Britny Fox by singer Tommy Paris. The album debuted at No. 79 on the Billboard 200 albums chart. The song "Hair of the Dog" was originally recorded by Nazareth on the album Hair of the Dog (1975)..."

Britny Fox - Boys In Heat (1989)

Official Website | Wiki | Discogs | All Music
***************

Britny Fox - Boys In Heat (1989)

Track List:

01. In Motion [02:45]
02. Standing In The Shadows [03:49]
03. Hair Of The Dog [04:18]
04. Livin' On A Dream [03:20]
05. She's So Lonely [04:04]
06. Dream On [04:53]
07. Long Way From Home [04:17]
08. Plenty Of Love [04:15]
09. Stevie [04:28]
10. Shine On [03:33]
11. Angel In My Heart [04:24]
12. Left Me Stray [03:15]
13. Longroad [04:04]

Exact Audio Copy V1.1 from 23. June 2015

EAC extraction logfile from 29. September 2015, 18:59

Britny Fox / Boys In Heat

Used drive : hp DVDRAM GT31L Adapter: 1 ID: 0

Read mode : Secure
Utilize accurate stream : Yes
Defeat audio cache : Yes
Make use of C2 pointers : No

Read offset correction

: 103
Overread into Lead-In and Lead-Out : No
Fill up missing offset samples with silence : Yes
Delete leading and trailing silent blocks : No
Null samples used in CRC calculations : Yes
Used interface
: Native Win32 interface for Win NT & 2000

Used output format : User Defined Encoder
Selected bitrate : 1024 kBit/s
Quality : High
Add ID3 tag : Yes
Command line compressor : C:\Program Files (x86)\Exact Audio Copy\Flac\flac.exe
Additional command line options : -V -8 -T "Date=%year%" -T "Genre=%genre%" %source%

TOC of the extracted CD Track | Start | Length | Start sector | End sector
--1 | 0:00.00 | 2:44.70 | 0 | 12369 2 | 2:44.70 | 3:48.27 | 12370 | 29496 3 | 6:33.22 | 4:17.33 | 29497 | 48804 4 | 10:50.55 | 3:19.30 | 48805 | 63759 5 | 14:10.10 | 4:03.02 | 63760 | 81986 6 | 18:13.12 | 4:52.08 | 81987 | 103894 7 | 23:05.20 | 4:16.30 | 103895 | 123124 8 | 27:21.50 | 4:14.37 | 123125 | 142211 9 | 31:36.12 | 4:27.20 | 142212 | 162256
10 | 36:03.32 | 3:32.18 | 162257 | 178174
11 | 39:35.50 | 4:23.50 | 178175 | 197949
12 | 43:59.25 | 3:14.25 | 197950 | 212524
13 | 47:13.50 | 4:03.67 | 212525 | 230816

Range status and errors

Selected range Filename E:\Rips\Britny Fox - Boys In Heat.wav Peak level 99.9 %
Extraction speed 2.0 X
Range quality 99.9 %
Test CRC B0666D7D
Copy CRC B0666D7D
Copy OK

No errors occurred


AccurateRip summary

Track 1 accurately ripped (confidence 5) [F10E763D] (AR v2)
Track 2 accurately ripped (confidence 5) [78460826] (AR v2)
Track 3 accurately ripped (confidence 4) [FC66E60B] (AR v2)
Track 4 accurately ripped (confidence 5) [251157A3] (AR v2)
Track 5 accurately ripped (confidence 5) [D91455CB] (AR v2)
Track 6 accurately ripped (confidence 5) [9307D45D] (AR v2)
Track 7 accurately ripped (confidence 5) [0FB866F4] (AR v2)
Track 8 accurately ripped (confidence 5) [D97C726E] (AR v2)
Track 9 accurately ripped (confidence 5) [4F37F859] (AR v2)
Track 10 accurately ripped (confidence 5) [D36CD180] (AR v2)
Track 11 accurately ripped (confidence 5) [A0D9DDBA] (AR v2)
Track 12 accurately ripped (confidence 5) [FC352A0C] (AR v2)
Track 13 accurately ripped (confidence 5) [7A93643E] (AR v2)

All tracks accurately ripped

End of status report

- CUETools DB Plugin V2.1.6

[CTDB TOCID: O6Y8bfdEK35WJd31rjMxodqVQPc-] found
Submit result: O6Y8bfdEK35WJd31rjMxodqVQPc- has been confirmed
Track | CTDB Status
1 | ( 8/11) Accurately ripped
2 | ( 7/11) Accurately ripped
3 | ( 7/11) Accurately ripped
4 | ( 8/11) Accurately ripped
5 | ( 8/11) Accurately ripped
6 | ( 8/11) Accurately ripped
7 | ( 8/11) Accurately ripped
8 | ( 8/11) Accurately ripped
9 | ( 8/11) Accurately ripped
10 | ( 8/11) Accurately ripped
11 | ( 7/11) Accurately ripped
12 | ( 7/11) Accurately ripped
13 | ( 8/11) Accurately ripped

==== Log checksum C43AB5B770D7ECC234F355FBC3F7BE3E42BA1373739EA812A1A1F23823B21EB7 ====

foobar2000 1.2.6 / Dynamic Range Meter 1.1.1
log date: 2015-11-07 23:07:42

Analyzed: Britny Fox / Boys In Heat

DR Peak RMS Duration Track

DR12 -1.18 dB -15.06 dB 2:45 01-In Motion
DR13 -0.20 dB -15.25 dB 3:48 02-Standing In The Shadows
DR13 -1.14 dB -16.10 dB 4:17 03-Hair Of The Dog
DR13 0.00 dB -16.00 dB 3:19 04-Livin' On A Dream
DR15 0.00 dB -16.15 dB 4:03 05-She's So Lonely
DR15 -0.93 dB -17.51 dB 4:52 06-Dream On
DR13 -1.31 dB -16.51 dB 4:16 07-Long Way From Home
DR14 -0.21 dB -15.18 dB 4:14 08-Plenty Of Love
DR14 -0.14 dB -16.43 dB 4:27 09-Stevie
DR15 -0.45 dB -16.67 dB 3:32 10-Shine On
DR14 -0.34 dB -16.23 dB 4:24 11-Angel In My Heart
DR13 -1.12 dB -16.97 dB 3:14 12-Left Me Stray
DR14 -2.00 dB -18.00 dB 4:04 13-Longroad

Number of tracks: 13
Official DR value: DR14

Samplerate: 44100 Hz
Channels: 2
Bits per sample: 16
Bitrate: 960 kbps
Codec: FLAC

[CUETools log; Date: 07.11.2015 23:07:41; Version: 2.1.5]
[CTDB TOCID: O6Y8bfdEK35WJd31rjMxodqVQPc-] found.
Track | CTDB Status
1 | ( 9/12) Accurately ripped
2 | ( 8/12) Accurately ripped
3 | ( 8/12) Accurately ripped
4 | ( 9/12) Accurately ripped
5 | ( 9/12) Accurately ripped
6 | ( 9/12) Accurately ripped
7 | ( 9/12) Accurately ripped
8 | ( 9/12) Accurately ripped
9 | ( 9/12) Accurately ripped
10 | ( 9/12) Accurately ripped
11 | ( 8/12) Accurately ripped
12 | ( 8/12) Accurately ripped
13 | ( 9/12) Accurately ripped
[AccurateRip ID: 001838af-00f51c11-c60c050d] found.
Track [ CRC | V2 ] Status
01 [ef7a2aea|f10e763d] (06+05/11) Accurately ripped
02 [10dd3646|78460826] (06+05/11) Accurately ripped
03 [7b380323|fc66e60b] (06+04/10) Accurately ripped
04 [3916e85a|251157a3] (05+05/10) Accurately ripped
05 [52b875d8|d91455cb] (05+05/10) Accurately ripped
06 [c2107d55|9307d45d] (06+05/11) Accurately ripped
07 [a282a8d4|0fb866f4] (06+05/11) Accurately ripped
08 [8f7e06a4|d97c726e] (05+05/10) Accurately ripped
09 [966dc470|4f37f859] (06+05/11) Accurately ripped
10 [0ef29f20|d36cd180] (06+05/11) Accurately ripped
11 [2600bc57|a0d9ddba] (06+05/11) Accurately ripped
12 [f3241a1c|fc352a0c] (06+05/11) Accurately ripped
13 [732be910|7a93643e] (06+05/11) Accurately ripped

Track Peak [ CRC32 ] [W/O NULL] [ LOG ]
-- 99,9 0666D7D [A4E9A0C6] CRC32
01 87,2 [EB1B398D] [8E20D7D9]
02 97,7 [F84E2E32] [EDDA29C5]
03 87,7 [3EF52C68] [3003DD61]
04 99,9 [7CA0A4BF] [3EF52A60]
05 99,9 [CBD2B41F] [72720195]
06 89,8 [46B785B2] [1828D021]
07 86,0 [D241B521] [86ED4567]
08 97,6 [A6AE8BBD] [E8452CFD]
09 98,4 [7E8C0891] [7C635AC9]
10 94,9 [E9289549] [ED203333]
11 96,1 [14C500AA] [96C86E08]
12 87,9 [3B5E97C4] [73F8E55A]
13 79,4 [27213961] [196B88B7]

Britny Fox - Boys In Heat (1989)

Britny Fox - Boys In Heat (1989)

DOWNLOAD LINKS
Buy Premium From My Links To Get Resumable Support & Max Speed & To Support Me


Links are Interchangeable - No Password - Single Extraction
Direct Download

Tags: Britny

Britny Fox - Boys In Heat (1989) Download via Hotfile Rapidshare Fileserve Megaupload & FileSonic, Britny Fox - Boys In Heat (1989) free torrent downloads included crack, serial, keygen.Britny Fox - Boys In Heat (1989) Fast Download via Rapidshare Hotfile Fileserve Filesonic Megaupload, Britny Fox - Boys In Heat (1989) Torrents and Emule Download or anything related.
Leave a Comment
Your Name:
E-Mail:
Add Comments:

Enter Code: