Skinny Puppy - 12 Inch Anthology (1991)

Download Now

Skinny Puppy - 12 Inch Anthology (1991)

Skinny Puppy - 12 Inch Anthology (1991)
Electronic | 1cd | EAC Rip | Flac + Cue + Log | covers
Nettwerk, W2 30041 | rel: 1991 | 480Mb

Featuring both sides of four 12" singles from 1985 to 1989, 12" Anthology offers the best introduction to Skinny Puppy's psycho-terrorist industrial music. From the early double-sided classic "Dig It"/"The Choke" to later offerings like "Chainsaw" and "Assimilate," only the best of SP's 1980s output is collected here. ~Allmusic
Track listing
01. Dig It (7:28)
02. The Choke (Re-Grip) (6:15)
03. Addiction (First Dose) (8:30)
04. Deep Down Trauma Hounds (Remix) (7:28)
05. Serpants (5:58)
06. Chainsaw (5:55)
07. Assimilate (R23 Remix) (6:34)
08. Stairs And Flowers (Def Wish Mix) (6:05)
09. Stairs And Flowers (Too Far Gone) (6:37)
10. Testure (12 Inch Mix) (8:31)
~ (69:22)

Exact Audio Copy V1.0 beta 1 from 15. November 2010

EAC extraction logfile from 24. March 2011, 13:34

Skinny Puppy / 12 Inch Anthology

Used drive : PLEXTOR CD-R PX-240A Adapter: 1 ID: 1

Read mode : Secure
Utilize accurate stream : Yes
Defeat audio cache : Yes
Make use of C2 pointers : No

Read offset correction

: 6
Overread into Lead-In and Lead-Out : No
Fill up missing offset samples with silence : Yes
Delete leading and trailing silent blocks : No
Null samples used in CRC calculations : Yes
Used interface
: Installed external ASPI interface

Used output format : Internal WAV Routines
Sample format : 44.100 Hz; 16 Bit; Stereo

TOC of the extracted CD Track | Start | Length | Start sector | End sector
--1 | 0:00.00 | 7:28.00 | 0 | 33599 2 | 7:28.00 | 6:15.22 | 33600 | 61746 3 | 13:43.22 | 8:30.13 | 61747 | 100009 4 | 22:13.35 | 7:27.45 | 100010 | 133579 5 | 29:41.05 | 5:57.47 | 133580 | 160401 6 | 35:38.52 | 5:55.30 | 160402 | 187056 7 | 41:34.07 | 6:33.73 | 187057 | 216604 8 | 48:08.05 | 6:05.15 | 216605 | 243994 9 | 54:13.20 | 6:37.05 | 243995 | 273774
10 | 60:50.25 | 8:31.32 | 273775 | 312131

Range status and errors

Selected range Filename Z:\data\mp3\Seeding Archive\Skinny Puppy\1991-12'' Anthology\anthology.wav Peak level 99.2 %
Extraction speed 1.1 X
Range quality 99.9 %
Test CRC 5B091033
Copy CRC 5B091033
Copy OK

No errors occurred


AccurateRip summary

Track 1 accurately ripped (confidence 2) [0B7F2E75]
Track 2 accurately ripped (confidence 7) [94785E02]
Track 3 accurately ripped (confidence 2) F616F86
Track 4 accurately ripped (confidence 2) [96E430E7]
Track 5 accurately ripped (confidence 2) [46833091]
Track 6 accurately ripped (confidence 2) [3BB305BE]
Track 7 accurately ripped (confidence 2) [3C8FFA7B]
Track 8 accurately ripped (confidence 2) [F997B0A2]
Track 9 accurately ripped (confidence 2) 3D9BFB2
Track 10 accurately ripped (confidence 2) [6F7C52B4]

All tracks accurately ripped

End of status report

[CUETools log; Date: 2015.11.09. 11:25:03; Version: 2.1.5]
[AccurateRip ID: 001a4a17-00d0ed1e-8710410a] found.
Track [ CRC | V2 ] Status
01 [0b7f2e75|56f347f0] (07+06/23) Accurately ripped
02 [94785e02|11687c44] (06+05/20) Accurately ripped
03 f616f86|7e1eb755 (07+06/23) Accurately ripped
04 [96e430e7|e81a2f68] (07+06/22) Accurately ripped
05 [46833091|51f66837] (08+06/23) Accurately ripped
06 [3bb305be|792e893f] (07+06/22) Accurately ripped
07 [3c8ffa7b|bd2581a7] (07+06/22) Accurately ripped
08 [f997b0a2|e14ff1c8] (07+06/22) Accurately ripped
09 3d9bfb2|d6d1f3ea (07+06/22) Accurately ripped
10 [6f7c52b4|cd096717] (07+06/22) Accurately ripped
Offsetted by -18:
01 [3a4daaeb] (02/23) Accurately ripped
02 2f694cc (02/20) Accurately ripped
03 [0366fa04] (02/23) Accurately ripped
04 [94552ef0] (02/22) Accurately ripped
05 a2f4152 (02/23) Accurately ripped
06 [15c45407] (02/22) Accurately ripped
07 [1c174786] (02/22) Accurately ripped
08 [cd8f3af7] (02/22) Accurately ripped
09 [9f073abd] (02/22) Accurately ripped
10 f9b6d26 (02/22) Accurately ripped
Offsetted by 1429:
01 [2404b216] (00/23) No match (V2 was not tested)
02 [ade29941] (00/20) No match (V2 was not tested)
03 570a773 (00/23) No match (V2 was not tested)
04 [2c89a5c7] (00/22) No match (V2 was not tested)
05 [5664c470] (00/23) No match (V2 was not tested)
06 [a1e190cb] (00/22) No match (V2 was not tested)
07 [f69517e6] (00/22) No match (V2 was not tested)
08 [14502f23] (00/22) No match (V2 was not tested)
09 [074da7eb] (00/22) No match (V2 was not tested)
10 [03eea7e1] (00/22) No match (V2 was not tested)

Track Peak [ CRC32 ] [W/O NULL] [ LOG ]
-- 99,2 [5B091033] [F62078C8] CRC32
01 93,1 0CB30D3 [2C8B5FA9]
02 83,1 90F6949 [655B76A6]
03 99,0 [FBAEE815] [21C729B2]
04 99,2 [F6A1B59D] [44746E0F]
05 89,3 [052D02B7] [2B6A8C58]
06 83,2 [F22A9055] [49E8F744]
07 82,0 [07B97507] [592979FE]
08 84,9 [E70388C7] [6F677783]
09 85,4 A21DFA9 [E78A3773]
10 94,5 [C188F0E3] [6D9D459E]

Thx to hexonut





Yunfile


password: asd

DOWNLOAD LINKS
Buy Premium From My Links To Get Resumable Support & Max Speed & To Support Me


Links are Interchangeable - No Password - Single Extraction
Direct Download

Tags: Skinny, Anthology

Skinny Puppy - 12 Inch Anthology (1991) Download via Hotfile Rapidshare Fileserve Megaupload & FileSonic, Skinny Puppy - 12 Inch Anthology (1991) free torrent downloads included crack, serial, keygen.Skinny Puppy - 12 Inch Anthology (1991) Fast Download via Rapidshare Hotfile Fileserve Filesonic Megaupload, Skinny Puppy - 12 Inch Anthology (1991) Torrents and Emule Download or anything related.
Leave a Comment
Your Name:
E-Mail:
Add Comments:

Enter Code: