Eric Burdon and The Animals - Athens Traffic Live (2005) (CD + DVD)

Download Now

Eric Burdon and The Animals - Athens Traffic Live (2005) (CD + DVD)

Eric Burdon and The Animals - Athens Traffic Live (2005) (CD + DVD)
DVD5 | VIDEO_TS | MPEG-2 Video, PAL 16:9 (720:480), 25fps, 7880kbps | DD 2.0, 224kbps | 31min | 1900Mb
1CD | Flac + Cue + Log | 480Mb
Rock | SPV/Soyuz 70932, russian pressing | rel: 2005 | covers

In 2004 Eric Burdon released his fantastic album "My Secret Life" and toured in Europe and US. His sense of humour hasn't left Burdon, and he still likes to play upon his age. "I'm a wreck," he says, surprising his listeners, adding - with a wink, of course: "I've got bronchitis, asthma, I'm overweight and I'm a slow-motion wreck of a human being. I turn into a different person every time I get on stage.
I haven't changed and continue to do what I've always done." And everyone who saw Eric Burdon live knows that his authentic blues voice is still in top form and so are his energetic live performances. You can hear the passion that Eric feels for his music! On "Athens Traffic Live" you find the most exciting old and new hits, more than 1 hour of great music ! The bonus DVD contains besides Eric's commentaries, a drum solo and the super bonus feature also 3 never before released videos, which he produced on his own. Watch it and enjoy! ~Amazon

Tracks:
cd:
01. Intro (0:16)
02. Boom Boom (5:57)
03. When I Was Young (4:31)
04. Factory Girl (4:42)
05. Once Upon A Time (4:00)
06. Devil's Slide (4:39)
07. Heaven (4:50)
08. The Night (3:57)
09. My Secret Life (6:03)
10. Over The Border (4:35)
11. Little Queenie (4:25)
12. Tobacco Road (11:56)
13. Mercy's Hand (Studio Bonus Track) (5:08)
~ (65:00)

dvd:
- Bonus Statements
- Once Upon A Time (Home Made Video)
- Highway (Home Made Video)
- The Secret Short Introduction By EB (Home Made Video)
- Drum Solo
- Photo Gallery
- Super Bonus Feature: The Blues Knights

Personnel:
- Bass, Vocals - Dave Meros
- Drums - Bernie Pershey
- Guitar, Vocals - Dean Restum
- Keyboards, Violin, Vocals - Martin Gerschwitz
- Vocals - Eric Burdon

Exact Audio Copy V0.99 prebeta 1 from 25. May 2007

Отчёт EAC об извлечении, выполненном 10. февраля 2009, 19:48

Eric Burdon & The Animals / Athens Traffic Live

Дисковод: ASUS DRW-1814BL Adapter: 1 ID: 0

Режим чтения : Достоверность
Использование точного потока : Да
Отключение кэша аудио : Да
Использование указателей C2 : Нет

Коррекция смещения при чтении : 6
Способность читать области Lead-in и Lead-out : Нет
Заполнение пропущенных сэмплов тишиной : Да
Удаление блоков с тишиной в начале и конце : Нет
Интерфейс
: Установленный внешний ASPI-интерфейс

Выходной формат : Пользовательский кодировщик
Выбранный битрейт : 1024 kBit/s
Качество : Высокий
Добавление ID3-тэга : Нет
Утилита сжатия : E:\Program Files\Exact Audio Copy\FLAC\FLAC.EXE
Дополнительные параметры : -6 -V -T "ARTIST=%a" -T "TITLE=%t" -T "ALBUM=%g" -T "DATE=%y" -T "TRACKNUMBER=%n" -T "GENRE=%m" -T "COMMENT=%e" %s -o %d

TOC извлечённого CD Трек | Старт | Длительность | Начальный сектор | Конечный сектор

1 | 0:00.00 | 0:16.00 | 0 | 1199
2 | 0:16.00 | 5:57.28 | 1200 | 28002
3 | 6:13.28 | 4:31.27 | 28003 | 48354
4 | 10:44.55 | 4:42.31 | 48355 | 69535
5 | 15:27.11 | 4:00.28 | 69536 | 87563
6 | 19:27.39 | 4:38.68 | 87564 | 108481
7 | 24:06.32 | 4:49.46 | 108482 | 130202
8 | 28:56.03 | 3:56.66 | 130203 | 147968
9 | 32:52.69 | 6:02.54 | 147969 | 175172
10 | 38:55.48 | 4:35.21 | 175173 | 195818
11 | 43:30.69 | 4:24.41 | 195819 | 215659
12 | 47:55.35 | 11:56.04 | 215660 | 269363
13 | 59:51.39 | 5:08.24 | 269364 | 292487

Характеристики диапазона извлечения и сообщения об ошибках

Выбранный диапазон Имя файла C:\Релиз\Eric Burdon and The Animals - Athens Traffic Live (2005)\Eric Burdon & The Animals - Athens Traffic Live.wav Пиковый уровень 98.8 %
Качество диапазона 100.0 %
CRC копии 384705E0
Копирование... OK

Ошибок не произошло

Конец отчёта[CUETools log; Date: 2015.11.09. 13:36:05; Version: 2.1.5]
[AccurateRip ID: 001b0158-0118649c-ce0f3b0d] found.
Track [ CRC | V2 ] Status
01 [ea6db65c|52c409b0] (00+00/18) No match
02 [8ce3e2d1|72b062f7] (00+00/18) No match
03 [c6f9b568|be4035af] (00+00/18) No match
04 [156d1f4b|0ba3a202] (00+00/18) No match
05 [9a5fb7a8|202095fc] (00+00/18) No match
06 [6e05ec0e|d27a1ae2] (00+00/18) No match
07 [06ecf190|da0e775a] (00+00/18) No match
08 [0deecfe0|fa2e7813] (00+00/18) No match
09 [7c804578|bd74d33d] (00+00/18) No match
10 [dff0af6b|77c2938d] (00+00/18) No match
11 [e1074eee|07f74f11] (00+00/18) No match
12 [05625c01|78dbfd42] (00+00/17) No match
13 [10fd7d6d|70fd397c] (00+00/16) No match
Offsetted by 664:
01 [354d3f31] (07/18) Accurately ripped
02 [4a62d2f7] (07/18) Accurately ripped
03 [7e4460ab] (07/18) Accurately ripped
04 [11eeb646] (07/18) Accurately ripped
05 [3db5ceab] (07/18) Accurately ripped
06 [25f825a0] (07/18) Accurately ripped
07 [c3de1a8b] (07/18) Accurately ripped
08 [8b31a139] (07/18) Accurately ripped
09 [000053e5] (07/18) Accurately ripped
10 [ebbc6d4b] (07/18) Accurately ripped
11 [a1d70ada] (07/18) Accurately ripped
12 [52ac7fe0] (06/17) Accurately ripped
13 [4f98df5f] (06/16) Accurately ripped

Track Peak [ CRC32 ] [W/O NULL]
-- 98,8 [384705E0] [F16C6144]
01 60,8 [4D17E4A4] [5EE9CA26]
02 98,8 [2480EC34] [8B801876]
03 98,8 [A0ED4090] [D8652658]
04 98,8 [56677775] [23EF55C9]
05 98,8 [3B355C1A] [E3C1C299]
06 98,8 [F52B51B9] [3633B5CF]
07 98,8 [D0FCF986] [AF112FF4]
08 98,8 [4413DA32] [DDC0EC6C]
09 98,8 [8D58E9C2] [FFE52943]
10 98,8 [545F4738] [04CBE401]
11 98,8 43BE6D6 [CC1E61DF]
12 98,8 [ADAA45F0] [137418B6]
13 98,8 [FAA0930E] [6612CC07]
Eric Burdon and The Animals - Athens Traffic Live (2005) (CD + DVD)

Eric Burdon and The Animals - Athens Traffic Live (2005) (CD + DVD)

Big thx to melomans





Gigapeta


password: asd

DOWNLOAD LINKS
Buy Premium From My Links To Get Resumable Support & Max Speed & To Support Me


Links are Interchangeable - No Password - Single Extraction
Direct Download

Tags: Burdon, Animals, Athens, Traffic

Eric Burdon and The Animals - Athens Traffic Live (2005) (CD + DVD) Download via Hotfile Rapidshare Fileserve Megaupload & FileSonic, Eric Burdon and The Animals - Athens Traffic Live (2005) (CD + DVD) free torrent downloads included crack, serial, keygen.Eric Burdon and The Animals - Athens Traffic Live (2005) (CD + DVD) Fast Download via Rapidshare Hotfile Fileserve Filesonic Megaupload, Eric Burdon and The Animals - Athens Traffic Live (2005) (CD + DVD) Torrents and Emule Download or anything related.
Leave a Comment
Your Name:
E-Mail:
Add Comments:

Enter Code: