Tord Gustavsen Trio - Changing Places (2003) {ECM 1834]

Download Now

Tord Gustavsen Trio - Changing Places (2003) {ECM 1834]

Tord Gustavsen Trio - Changing Places (2003) {ECM 1834]
EAC 0.95pb5 | FLAC tracks level 8 | Cue+Log+M3U | Full Scans 300dpi | 300MB + 5% Recovery
Genre: Jazz, Post-Bop

"This release signals in the then 33-year old, Norwegian pianist Tord Gustavsen's debut outing for the ECM Records label. His fellow compatriots, bassist Harald Johnsen and drummer Jarle Vespestad, round out this jazz piano trio offering. Fundamentally speaking, the group seemingly works its palate into that classic "ECM Records" aesthetic, comprising echo-laden sonic characteristics and a chamber-esque vibe."

Track List
01. Deep As Love
02. Graceful Touch
03. IGN
04. Melted Matter
05. At A Glance
06. Song Of Yearning
07. Turning Point
08. Interlude
09. Where Breathing Starts
10. Going Places
11. Your Eyes
12. Graceful Touch, Variation
13. Song Of Yearning (Solo)

musicians
Tord Gustavsen - piano
Harald Johnsen - double bass
Jarle Vespestad - drums

Produced by Manfred Eicher

EAC extraction logfile from 27. April 2005, 23:20 for CD
Tord Gustavsen Trio / Changing Places

Used drive : PLEXTOR CD-R PREMIUM Adapter: 1 ID: 0
Read mode : Secure with NO C2, accurate stream, disable cache
Read offset correction : 30
Overread into Lead-In and Lead-Out : Yes

Used output format : E:\Programmi\Exact Audio Copy 0.95\Encoders\flac.exe (User Defined Encoder) 224 kBit/s Additional command line options : -8 -V -T "artist=%a" -T "title=%t" -T "album=%g" -T "date=%y" -T "tracknumber=%n" -T "genre=%m" -T "comment=Exact Audio Copy 0.95 pb5 Secure Mode / FLAC q8 v. 1.1.2" %s

Other options :
Fill up missing offset samples with silence : Yes
Delete leading and trailing silent blocks : No
Installed external ASPI interface

Track 1
Filename D:\Seed\Tord Gustavsen Trio - Changing Places (2003) [FLAC]\01 - Deep as love.wav Pre-gap length 0:00:02.00 Peak level 98.1 %
Track quality 100.0 %
Test CRC 3A34A0CB
Copy CRC 3A34A0CB
Copy OK

Track 2
Filename D:\Seed\Tord Gustavsen Trio - Changing Places (2003) [FLAC]\02 - Graceful touch.wav Pre-gap length 0:00:03.86 Peak level 87.7 %
Track quality 100.0 %
Test CRC 7041D5E3
Copy CRC 7041D5E3
Copy OK

Track 3
Filename D:\Seed\Tord Gustavsen Trio - Changing Places (2003) [FLAC]\03 - IGN.wav Pre-gap length 0:00:04.20 Peak level 98.4 %
Track quality 100.0 %
Test CRC 2789678A
Copy CRC 2789678A
Copy OK

Track 4
Filename D:\Seed\Tord Gustavsen Trio - Changing Places (2003) [FLAC]\04 - Melted matter.wav Pre-gap length 0:00:03.29 Peak level 98.6 %
Track quality 100.0 %
Test CRC CEE2D05D
Copy CRC CEE2D05D
Copy OK

Track 5
Filename D:\Seed\Tord Gustavsen Trio - Changing Places (2003) [FLAC]\05 - At a glance.wav Pre-gap length 0:00:02.44 Peak level 98.6 %
Track quality 99.9 %
Test CRC 4DEB7369
Copy CRC 4DEB7369
Copy OK

Track 6
Filename D:\Seed\Tord Gustavsen Trio - Changing Places (2003) [FLAC]\06 - Song of yearning.wav Pre-gap length 0:00:02.10 Peak level 99.9 %
Track quality 100.0 %
Test CRC 4B9BF425
Copy CRC 4B9BF425
Copy OK

Track 7
Filename D:\Seed\Tord Gustavsen Trio - Changing Places (2003) [FLAC]\07 - Turning point.wav Pre-gap length 0:00:03.26 Peak level 98.4 %
Track quality 100.0 %
Test CRC 8D922D1C
Copy CRC 8D922D1C
Copy OK

Track 8
Filename D:\Seed\Tord Gustavsen Trio - Changing Places (2003) [FLAC]\08 - Interlude.wav Pre-gap length 0:00:03.49 Peak level 43.2 %
Track quality 99.8 %
Test CRC 9607DC66
Copy CRC 9607DC66
Copy OK

Track 9
Filename D:\Seed\Tord Gustavsen Trio - Changing Places (2003) [FLAC]\09 - Where breathing starts.wav Pre-gap length 0:00:08.20 Peak level 98.6 %
Track quality 100.0 %
Test CRC A0837BF0
Copy CRC A0837BF0
Copy OK

Track 10
Filename D:\Seed\Tord Gustavsen Trio - Changing Places (2003) [FLAC]\10 - Going places.wav Pre-gap length 0:00:04.30 Peak level 98.6 %
Track quality 99.9 %
Test CRC F61A8BF2
Copy CRC F61A8BF2
Copy OK

Track 11
Filename D:\Seed\Tord Gustavsen Trio - Changing Places (2003) [FLAC]\11 - Your eyes.wav Pre-gap length 0:00:04.06 Peak level 98.3 %
Track quality 99.9 %
Test CRC 6A82F47F
Copy CRC 6A82F47F
Copy OK

Track 12
Filename D:\Seed\Tord Gustavsen Trio - Changing Places (2003) [FLAC]\12 - Graceful touch, variation.wav Pre-gap length 0:00:05.84 Peak level 98.7 %
Track quality 99.9 %
Test CRC 616F2DAC
Copy CRC 616F2DAC
Copy OK

Track 13
Filename D:\Seed\Tord Gustavsen Trio - Changing Places (2003) [FLAC]\13 - Song of yearning (Solo).wav Pre-gap length 0:00:04.30 Peak level 77.7 %
Track quality 100.0 %
Test CRC 874C960C
Copy CRC 874C960C
Copy OK

No errors occured

End of status report

Analyzed: Tord Gustavsen Trio / Changing Places

DR Peak RMS Duration Track

DR17 -0.16 dB -22.50 dB 5:58 01-Deep as love
DR16 -1.14 dB -22.61 dB 3:54 02-Graceful touch
DR14 -0.14 dB -18.55 dB 4:37 03-IGN
DR15 -0.12 dB -19.74 dB 5:28 04-Melted matter
DR10 -0.11 dB -15.27 dB 4:21 05-At a glance
DR16 0.00 dB -22.62 dB 8:20 06-Song of yearning
DR16 -0.14 dB -20.89 dB 5:51 07-Turning point
DR15 -7.28 dB -29.64 dB 1:10 08-Interlude
DR14 -0.12 dB -18.19 dB 8:54 09-Where breathing starts
DR15 -0.12 dB -19.87 dB 5:37 10-Going places
DR16 -0.14 dB -21.86 dB 5:13 11-Your eyes
DR15 -0.11 dB -19.15 dB 4:38 12-Graceful touch, variation
DR14 -2.19 dB -21.48 dB 1:59 13-Song of yearning (Solo)

Number of tracks: 13
Official DR value: DR15

Samplerate: 44100 Hz
Channels: 2
Bits per sample: 16
Bitrate: 462 kbps
Codec: FLAC

Tord Gustavsen Trio - Changing Places (2003) {ECM 1834]

Tord Gustavsen Trio - Changing Places (2003) {ECM 1834]

Tord Gustavsen Trio - Changing Places (2003) {ECM 1834]

Thanks for the rip to arh.gavriil


DOWNLOAD LINKS
Buy Premium From My Links To Get Resumable Support & Max Speed & To Support Me


Links are Interchangeable - No Password - Single Extraction
Direct Download

Tags: Gustavsen, Changing, Places

Tord Gustavsen Trio - Changing Places (2003) {ECM 1834] Download via Hotfile Rapidshare Fileserve Megaupload & FileSonic, Tord Gustavsen Trio - Changing Places (2003) {ECM 1834] free torrent downloads included crack, serial, keygen.Tord Gustavsen Trio - Changing Places (2003) {ECM 1834] Fast Download via Rapidshare Hotfile Fileserve Filesonic Megaupload, Tord Gustavsen Trio - Changing Places (2003) {ECM 1834] Torrents and Emule Download or anything related.
Leave a Comment
Your Name:
E-Mail:
Add Comments:

Enter Code: