Willie May - Blues Mona (2015)

Download Now

Willie May - Blues Mona (2015)

Willie May - Blues Mona (2015)
EAC Rip | FLAC (Img) + Cue + Log ~ 287 Mb | MP3 CBR320 ~ 122 Mb
Scans Included (JPG, 600 dpi) | RAR 5% Recovery
Blues | Booman Music #BMCD 4025

"Legendary Western New York blues man gives another stellar roots/blues release. Willie May appears to have a deep well of inspiration as he remains one of the more prolific, productive song writers on the independent recording artist scene. This album is recorded proof."

Official Website
***************

Willie May - Blues Mona (2015)

Track List:

01. Lock It Up [03:29]
02. Big Legged Woman [03:42]
03. Monas Watching Eye [04:11]
04. Stop Hurtin' Me [03:41]
05. Surf Mona Blues [03:26]
06. Children Be Free [04:24]
07. Not Gonna Love Ya' [03:25]
08. You Don't Know Much [03:50]
09. Gloria [03:00]
10. In My Dreams [03:39]

Exact Audio Copy V1.0 beta 3 from 29. August 2011

Отчёт EAC об извлечении, выполненном 31. октября 2015, 9:51

Willie May / Blues Mona

Дисковод: PLEXTOR DVDR PX-880SA Adapter: 1 ID: 0

Режим чтения : Достоверность
Использование точного потока : Да
Отключение кэша аудио : Да
Использование указателей C2 : Нет

Коррекция смещения при чтении : 6
Способность читать области Lead-in и Lead-out : Нет
Заполнение пропущенных сэмплов тишиной : Да
Удаление блоков с тишиной в начале и конце : Нет
При вычислениях CRC использовались нулевые сэмплы : Да
Интерфейс : Установленный внешний ASPI-интерфейс

Выходной формат : Пользовательский кодировщик
Выбранный битрейт : 1024 kBit/s
Качество : Высокий
Добавление ID3-тега : Нет
Утилита сжатия : C:\Program Files\Exact Audio Copy\FLAC\FLAC.EXE
Дополнительные параметры : -8 -V -T "ARTIST=%artist%" -T "ALBUM=%albumtitle%" -T "DATE=%year%" -T "GENRE=%genre%" -T "COMMENT=ripped by izia1956" %source%

TOC извлечённого CD Трек | Старт | Длительность | Начальный сектор | Конечный сектор

1 | 0:00.00 | 3:28.57 | 0 | 15656
2 | 3:28.57 | 3:41.35 | 15657 | 32266
3 | 7:10.17 | 4:10.74 | 32267 | 51090
4 | 11:21.16 | 3:40.17 | 51091 | 67607
5 | 15:01.33 | 3:25.02 | 67608 | 82984
6 | 18:26.35 | 4:23.28 | 82985 | 102737
7 | 22:49.63 | 3:24.51 | 102738 | 118088
8 | 26:14.39 | 3:49.61 | 118089 | 135324
9 | 30:04.25 | 2:59.19 | 135325 | 148768
10 | 33:03.44 | 3:38.63 | 148769 | 165181

Характеристики диапазона извлечения и сообщения об ошибках

Выбранный диапазон Имя файла D:\BitComet\Willie May(flac)\2015 - Blues Mona\Willie May - Blues Mona.wav Пиковый уровень 98.8 %
Скорость извлечения 2.6 X
Качество диапазона 100.0 %
CRC теста 8447CA6B
CRC копии 8447CA6B
Копирование... OK

Ошибок не произошло


AccurateRip: сводка

Трек 1 отсутствует в базе данных
Трек 2 отсутствует в базе данных
Трек 3 отсутствует в базе данных
Трек 4 отсутствует в базе данных
Трек 5 отсутствует в базе данных
Трек 6 отсутствует в базе данных
Трек 7 отсутствует в базе данных
Трек 8 отсутствует в базе данных
Трек 9 отсутствует в базе данных
Трек 10 отсутствует в базе данных

Ни одного трека нет в базе AccurateRip

Конец отчёта

==== Контрольная сумма отчёта 7A40492E81D945DA07F724B7E26764268665409FA4C5DFD0DD75A63F094CE2D1 ====

foobar2000 1.2.6 / Dynamic Range Meter 1.1.1
log date: 2015-11-11 02:41:27

Analyzed: Willie May / Blues Mona

DR Peak RMS Duration Track

DR9 -0.10 dB -10.44 dB 3:29 01-Lock It Up
DR9 -0.10 dB -10.35 dB 3:41 02-Big Legged Woman
DR9 -0.10 dB -9.93 dB 4:11 03-Monas Watching Eye
DR9 -0.10 dB -9.92 dB 3:40 04-Stop Hurtin' Me
DR9 -0.10 dB -10.66 dB 3:25 05-Surf Mona Blues
DR11 -0.10 dB -12.14 dB 4:23 06-Children Be Free
DR8 -0.10 dB -9.51 dB 3:25 07-Not Gonna Love Ya'
DR10 -0.10 dB -10.74 dB 3:50 08-You Don't Know Much
DR9 -0.10 dB -10.46 dB 2:59 09-Gloria
DR9 -0.10 dB -11.08 dB 3:39 10-In My Dreams

Number of tracks: 10
Official DR value: DR9

Samplerate: 44100 Hz
Channels: 2
Bits per sample: 16
Bitrate: 919 kbps
Codec: FLAC

[CUETools log; Date: 11.11.2015 2:41:26; Version: 2.1.5]
[CTDB TOCID: owolNVwRkIb57gXC446rlwmYqcU-] disk not present in database.
[AccurateRip ID: 000e089f-00703a2d-7a089a0a] disk not present in database.

Track Peak [ CRC32 ] [W/O NULL] [ LOG ]
-- 98,8 [8447CA6B] [6EEEC53B] CRC32
01 98,8 [DED129B7] [F837A901]
02 98,8 [0980B944] [1FB36722]
03 98,8 [8ED4392C] [789922B8]
04 98,8 [7642A774] 5A41A81
05 98,8 [23C4A728] [7841E64E]
06 98,8 [130CC6E9] [AA66FAEC]
07 98,8 [08494789] [FDD97E2D]
08 98,8 [DBE31385] [DA06E92B]
09 98,8 [C6CA8589] [C69E0510]
10 98,8 [36848DF8] [0F990776]

Willie May - Blues Mona (2015)

Willie May - Blues Mona (2015)

DOWNLOAD LINKS:
Buy Premium To Support Me & Get Resumable Support & Max Speed


Links are Interchangeable - No Password - Single Extraction
Direct Download

Tags: Willie

Willie May - Blues Mona (2015) Download via Hotfile Rapidshare Fileserve Megaupload & FileSonic, Willie May - Blues Mona (2015) free torrent downloads included crack, serial, keygen.Willie May - Blues Mona (2015) Fast Download via Rapidshare Hotfile Fileserve Filesonic Megaupload, Willie May - Blues Mona (2015) Torrents and Emule Download or anything related.
Leave a Comment
Your Name:
E-Mail:
Add Comments:

Enter Code: