John Tropea - Gotcha Rhythm Right Here (2014) {STP}

Download Now

John Tropea - Gotcha Rhythm Right Here (2014) {STP}

John Tropea - Gotcha Rhythm Right Here (2014) {STP}
EAC 1.1 | FLAC tracks level 8 | Cue+Log+M3U | Full Scans 300dpi | 512MB + 5% Recovery
Genre: Fusion

"Although thirty-one musicians are listed, guitarist John Tropea's latest recording isn't strictly a big-band album, as the sidemen perform on assorted tracks in groups whose size varies from five to twelve. Tropea is always present, of course, as is his friend and fellow composer / arranger Chris Palmaro on the Hammond B3 organ or Fender Rhodes keyboard (Palmaro also plays bass, drums, strings and percussion). As the album's title denotes, rhythm is always present as well, much of it a soul-blues-funk-R&B-based farrago as envisioned by Tropea and Palmaro who wrote or co-wrote all save one of the session's thirteen numbers."

Track List
01. Gotcha Rhythm Right Here, Pt.1 2:13
02. Black Eyed G's 4:23
03. Soul Surfin' 4:50
04. 7th Avenue South05:26
05. Chili Wa Man 5:52
06. Always in My Heart6:11
07. Side By Two 6:36
08. Bikini Beach 6:45
09. Les Is Moe' 5:46
10. NYC Direct 2014 7:20
11. Hip to the Hips 5:19
12. Gotcha Rhythm Right Here, Pt.2 6:46
13. Boulevard Strut 5:57

musicians
John Tropea - guitars, composer
Chris Palmaro - Hammond B3 organ, piano, Fender Rhodes, bass, drums, strings, percussion
Steve Gadd - drums
Will Lee - bass
Roger Squitero - percussion
Bob Millikan - trumpet
Glenn Drewes - trumpet
Lew Soloff - trumpet, flugelhorn
Don Harris - trumpet
Randy Brecker - trumpet
Lou Marini - alto sax, flutes
Dave Mann - tenor sax
Bob Malach - tenor sax
Bill Harris - tenor, baritone sax
Roger Rosenberg - baritone sax
Dave Riekenberg - baritone sax
Scott Robinson - bass sax
Larry Farrell - trombone
Hanan Rubinstein - guitar
Neil Jason - bass
Eric Udel - bass
Zev Katz - bass
Shawn Pelton - drums
Clint de Ganon - drums
Lee Finkelstein - drums
Cliff Almond - drums
Keith Karlock - drums
Duke Gadd - percussion
Tommy McDonnell - percussion
James "D-Train" Williams - vocal on 12
Rallybop - vocal on 13

Produced by John Tropea

Exact Audio Copy V1.1 from 23. June 2015

EAC extraction logfile from 13. November 2015, 13:59

John Tropea / Gotcha Rhythm Right Here

Used drive : HL-DT-STDVDRAM GH20NS10 Adapter: 1 ID: 0

Read mode : Secure
Utilize accurate stream : Yes
Defeat audio cache : Yes
Make use of C2 pointers : No

Read offset correction

: 667
Overread into Lead-In and Lead-Out : No
Fill up missing offset samples with silence : Yes
Delete leading and trailing silent blocks : No
Null samples used in CRC calculations : Yes
Used interface
: Native Win32 interface for Win NT & 2000
Gap handling
: Appended to previous track

Used output format : User Defined Encoder
Selected bitrate : 1024 kBit/s
Quality : High
Add ID3 tag : No
Command line compressor : C:\Program Files\Exact Audio Copy\Flac\flac.exe
Additional command line options : -8 -V -T "ARTIST=%artist%" -T "TITLE=%title%" -T "ALBUM=%albumtitle%" -T "DATE=%year%" -T "TRACKNUMBER=%tracknr%" -T "TOTALTRACKS=%numtracks%" -T "GENRE=%genre%" -T "ALBUMARTIST=%albumartist%" -T "ALBUM ARTIST=%albumartist%" -T "COMMENT=EAC Secure Mode, Test & Copy, AccurateRip, FLAC -8" %source%

TOC of the extracted CD Track | Start | Length | Start sector | End sector
--1 | 0:00.00 | 2:12.68 | 0 | 9967 2 | 2:12.68 | 4:23.05 | 9968 | 29697 3 | 6:35.73 | 4:50.23 | 29698 | 51470 4 | 11:26.21 | 5:26.55 | 51471 | 75975 5 | 16:53.01 | 5:52.13 | 75976 | 102388 6 | 22:45.14 | 6:12.09 | 102389 | 130297 7 | 28:57.23 | 6:36.28 | 130298 | 160025 8 | 35:33.51 | 6:45.62 | 160026 | 190462 9 | 42:19.38 | 5:46.22 | 190463 | 216434
10 | 48:05.60 | 7:20.55 | 216435 | 249489
11 | 55:26.40 | 5:19.41 | 249490 | 273455
12 | 60:46.06 | 6:46.16 | 273456 | 303921
13 | 67:32.22 | 5:57.13 | 303922 | 330709

Track 1 Filename D:\John Tropea - Gotcha Rhythm Right Here (2014) [FLAC]\01 - Gotcha Rhythm Right Here, Pt. 1.wav Pre-gap length 0:00:02.00 Peak level 97.7 %
Extraction speed 4.0 X
Track quality 100.0 %
Test CRC D1D497CB
Copy CRC D1D497CB
Track not present in AccurateRip database
Copy OK

Track 2 Filename D:\John Tropea - Gotcha Rhythm Right Here (2014) [FLAC]\02 - Black Eyed G's.wav Peak level 97.7 %
Extraction speed 4.8 X
Track quality 100.0 %
Test CRC 6FA69B0A
Copy CRC 6FA69B0A
Track not present in AccurateRip database
Copy OK

Track 3 Filename D:\John Tropea - Gotcha Rhythm Right Here (2014) [FLAC]\03 - Soul Surfin'.wav Peak level 97.7 %
Extraction speed 5.3 X
Track quality 100.0 %
Test CRC 6C4EFECA
Copy CRC 6C4EFECA
Track not present in AccurateRip database
Copy OK

Track 4 Filename D:\John Tropea - Gotcha Rhythm Right Here (2014) [FLAC]\04 - 7th Avenue South.wav Peak level 97.7 %
Extraction speed 5.8 X
Track quality 100.0 %
Test CRC E7ABBC2A
Copy CRC E7ABBC2A
Track not present in AccurateRip database
Copy OK

Track 5 Filename D:\John Tropea - Gotcha Rhythm Right Here (2014) [FLAC]\05 - Chili Wa Man.wav Peak level 97.7 %
Extraction speed 6.2 X
Track quality 100.0 %
Test CRC DC24E084
Copy CRC DC24E084
Track not present in AccurateRip database
Copy OK

Track 6 Filename D:\John Tropea - Gotcha Rhythm Right Here (2014) [FLAC]\06 - Always In My Heart.wav Peak level 97.7 %
Extraction speed 6.6 X
Track quality 100.0 %
Test CRC 5593E847
Copy CRC 5593E847
Track not present in AccurateRip database
Copy OK

Track 7 Filename D:\John Tropea - Gotcha Rhythm Right Here (2014) [FLAC]\07 - Side By Two.wav Peak level 97.7 %
Extraction speed 6.3 X
Track quality 99.9 %
Test CRC 72608976
Copy CRC 72608976
Track not present in AccurateRip database
Copy OK

Track 8 Filename D:\John Tropea - Gotcha Rhythm Right Here (2014) [FLAC]\08 - Bikini Beach.wav Peak level 97.7 %
Extraction speed 7.4 X
Track quality 100.0 %
Test CRC 3E93FFBA
Copy CRC 3E93FFBA
Track not present in AccurateRip database
Copy OK

Track 9 Filename D:\John Tropea - Gotcha Rhythm Right Here (2014) [FLAC]\09 - Les Is Moe'.wav Peak level 97.7 %
Extraction speed 7.6 X
Track quality 100.0 %
Test CRC F7DCC178
Copy CRC F7DCC178
Track not present in AccurateRip database
Copy OK

Track 10 Filename D:\John Tropea - Gotcha Rhythm Right Here (2014) [FLAC]\10 - NYC Direct 2014.wav Peak level 97.7 %
Extraction speed 8.0 X
Track quality 100.0 %
Test CRC F09FC7F2
Copy CRC F09FC7F2
Track not present in AccurateRip database
Copy OK

Track 11 Filename D:\John Tropea - Gotcha Rhythm Right Here (2014) [FLAC]\11 - Hip To The Hips.wav Peak level 97.7 %
Extraction speed 8.0 X
Track quality 100.0 %
Test CRC FBA5D113
Copy CRC FBA5D113
Track not present in AccurateRip database
Copy OK

Track 12 Filename D:\John Tropea - Gotcha Rhythm Right Here (2014) [FLAC]\12 - Gotcha Rhythm Right Here, Pt. 2.wav Peak level 97.7 %
Extraction speed 8.5 X
Track quality 100.0 %
Test CRC 76BC7A15
Copy CRC 76BC7A15
Track not present in AccurateRip database
Copy OK

Track 13 Filename D:\John Tropea - Gotcha Rhythm Right Here (2014) [FLAC]\13 - Boulevard Strut.wav Peak level 97.7 %
Extraction speed 8.7 X
Track quality 100.0 %
Test CRC 2B1C8485
Copy CRC 2B1C8485
Track not present in AccurateRip database
Copy OK

None of the tracks are present in the AccurateRip database

No errors occurred

End of status report

- CUETools DB Plugin V2.1.6

[CTDB TOCID: zyMhxSvHLmyVNYyxaVfRTpZGfjo-] found
Submit result: already submitted
Track | CTDB Status
1 | (1/1) Accurately ripped
2 | (1/1) Accurately ripped
3 | (1/1) Accurately ripped
4 | (1/1) Accurately ripped
5 | (1/1) Accurately ripped
6 | (1/1) Accurately ripped
7 | (1/1) Accurately ripped
8 | (1/1) Accurately ripped
9 | (1/1) Accurately ripped
10 | (1/1) Accurately ripped
11 | (1/1) Accurately ripped
12 | (1/1) Accurately ripped
13 | (1/1) Accurately ripped

==== Log checksum 1BC2EC3198575C34506C93B34C901E1B409754B139871C1E7175E9C7C9548AF4 ====

Analyzed: John Tropea / Gotcha Rhythm Right Here

DR Peak RMS Duration Track

DR9 -0.20 dB -10.36 dB 2:13 01-Gotcha Rhythm Right Here, Pt. 1
DR9 -0.20 dB -10.86 dB 4:23 02-Black Eyed G's
DR8 -0.20 dB -10.23 dB 4:50 03-Soul Surfin'
DR8 -0.20 dB -10.41 dB 5:27 04-7th Avenue South
DR10 -0.20 dB -12.13 dB 5:52 05-Chili Wa Man
DR9 -0.20 dB -11.33 dB 6:12 06-Always In My Heart
DR8 -0.20 dB -10.30 dB 6:36 07-Side By Two
DR7 -0.20 dB -9.28 dB 6:46 08-Bikini Beach
DR8 -0.20 dB -10.65 dB 5:46 09-Les Is Moe'
DR8 -0.20 dB -10.43 dB 7:21 10-NYC Direct 2014
DR11 -0.20 dB -13.21 dB 5:20 11-Hip To The Hips
DR9 -0.20 dB -11.15 dB 6:46 12-Gotcha Rhythm Right Here, Pt. 2
DR10 -0.20 dB -12.54 dB 5:57 13-Boulevard Strut

Number of tracks: 13
Official DR value: DR9

Samplerate: 44100 Hz
Channels: 2
Bits per sample: 16
Bitrate: 950 kbps
Codec: FLAC

John Tropea - Gotcha Rhythm Right Here (2014) {STP}

John Tropea - Gotcha Rhythm Right Here (2014) {STP}

John Tropea - Gotcha Rhythm Right Here (2014) {STP}

Rip by tiburon


DOWNLOAD LINKS:
Buy Premium To Support Me & Get Resumable Support & Max Speed


Links are Interchangeable - No Password - Single Extraction
Direct Download

Tags: Tropea, Gotcha, Rhythm

John Tropea - Gotcha Rhythm Right Here (2014) {STP} Download via Hotfile Rapidshare Fileserve Megaupload & FileSonic, John Tropea - Gotcha Rhythm Right Here (2014) {STP} free torrent downloads included crack, serial, keygen.John Tropea - Gotcha Rhythm Right Here (2014) {STP} Fast Download via Rapidshare Hotfile Fileserve Filesonic Megaupload, John Tropea - Gotcha Rhythm Right Here (2014) {STP} Torrents and Emule Download or anything related.
Leave a Comment
Your Name:
E-Mail:
Add Comments:

Enter Code: