Australis - Lifegiving (2005)

Download Now

Australis - Lifegiving (2005)

Australis - Lifegiving (2005)
EAC Rip | FLAC (tracks+.cue+log) - 294 MB | MP3 CBR 320 kbps (LAME 3.93) - 106 MB | Covers - 161 MB
Genre: Electronic, New Age | RAR 3% Rec. | Label: Orange Music (OM79632)

"The interbreeding of sound and spirit, Australis (winner of the Morpheus Music 2004 Best New Independent Artist award) journeys through new age, world, electronica and filmic genres; creating unique landscapes where heart and melody interweave seamlessly."

Tracklist:
01. Lifegiving
02. Conciliation
03. Turning Point
04. The Sound of Hope
05. Fire Tamer
06. Forbidden Scents
07. The Enchantment
08. Between the Sun and the Moon
09. Barren Lands
10. Sacred Earth

Total time: 45:08

Exact Audio Copy V1.0 beta 3 from 29. August 2011

EAC extraction logfile from 6. November 2015, 23:05

Australis / Lifegiving

Used drive : ASUS DRW-24F1ST a Adapter: 2 ID: 0

Read mode : Secure
Utilize accurate stream : Yes
Defeat audio cache : Yes
Make use of C2 pointers : No

Read offset correction

: 6
Overread into Lead-In and Lead-Out : No
Fill up missing offset samples with silence : Yes
Delete leading and trailing silent blocks : No
Null samples used in CRC calculations : Yes
Used interface
: Native Win32 interface for Win NT & 2000
Gap handling
: Appended to previous track

Used output format : User Defined Encoder
Selected bitrate : 1024 kBit/s
Quality : High
Add ID3 tag : No
Command line compressor : C:\Program Files (x86)\Exact Audio Copy\Flac\flac.exe
Additional command line options : -8 -V -T "COMMENT=ripped by DrStandBy special for new-team.org" -T "ARTIST=%artist%" -T "TITLE=%title%" -T "ALBUM=%albumtitle%" -T "DATE=%year%" -T "TRACKNUMBER=%tracknr%" -T "GENRE=%genre%" %source%

TOC of the extracted CD Track | Start | Length | Start sector | End sector
--1 | 0:00.00 | 4:03.10 | 0 | 18234 2 | 4:03.10 | 4:41.33 | 18235 | 39342 3 | 8:44.43 | 5:30.10 | 39343 | 64102 4 | 14:14.53 | 4:47.01 | 64103 | 85628 5 | 19:01.54 | 3:50.13 | 85629 | 102891 6 | 22:51.67 | 4:49.47 | 102892 | 124613 7 | 27:41.39 | 3:34.30 | 124614 | 140693 8 | 31:15.69 | 4:52.37 | 140694 | 162630 9 | 36:08.31 | 4:34.46 | 162631 | 183226
10 | 40:43.02 | 4:25.02 | 183227 | 203103

Track 1 Filename I:\For new-team\Australis\2005 - Australis - Lifegiving (OM79632)\01. Australis - Lifegiving.wav Pre-gap length 0:00:02.00 Peak level 100.0 %
Extraction speed 1.8 X
Track quality 100.0 %
Test CRC 39D978F3
Copy CRC 39D978F3
Track not present in AccurateRip database
Copy OK

Track 2 Filename I:\For new-team\Australis\2005 - Australis - Lifegiving (OM79632)\02. Australis - Conciliation.wav Pre-gap length 0:00:02.35 Peak level 100.0 %
Extraction speed 2.0 X
Track quality 100.0 %
Test CRC E98D7A67
Copy CRC E98D7A67
Track not present in AccurateRip database
Copy OK

Track 3 Filename I:\For new-team\Australis\2005 - Australis - Lifegiving (OM79632)\03. Australis - Turning Point.wav Pre-gap length 0:00:02.35 Peak level 100.0 %
Extraction speed 2.3 X
Track quality 100.0 %
Test CRC 824B357C
Copy CRC 824B357C
Track not present in AccurateRip database
Copy OK

Track 4 Filename I:\For new-team\Australis\2005 - Australis - Lifegiving (OM79632)\04. Australis - The Sound of Hope.wav Pre-gap length 0:00:02.35 Peak level 100.0 %
Extraction speed 2.5 X
Track quality 100.0 %
Test CRC AE27E2FC
Copy CRC AE27E2FC
Track not present in AccurateRip database
Copy OK

Track 5 Filename I:\For new-team\Australis\2005 - Australis - Lifegiving (OM79632)\05. Australis - Fire Tamer.wav Pre-gap length 0:00:02.35 Peak level 100.0 %
Extraction speed 2.6 X
Track quality 100.0 %
Test CRC 5B520054
Copy CRC 5B520054
Track not present in AccurateRip database
Copy OK

Track 6 Filename I:\For new-team\Australis\2005 - Australis - Lifegiving (OM79632)\06. Australis - Forbidden Scents.wav Pre-gap length 0:00:02.35 Peak level 100.0 %
Extraction speed 2.8 X
Track quality 100.0 %
Test CRC AB4779E7
Copy CRC AB4779E7
Track not present in AccurateRip database
Copy OK

Track 7 Filename I:\For new-team\Australis\2005 - Australis - Lifegiving (OM79632)\07. Australis - The Enchantment.wav Pre-gap length 0:00:02.35 Peak level 100.0 %
Extraction speed 2.8 X
Track quality 100.0 %
Test CRC E2D7D5A0
Copy CRC E2D7D5A0
Track not present in AccurateRip database
Copy OK

Track 8 Filename I:\For new-team\Australis\2005 - Australis - Lifegiving (OM79632)\08. Australis - Between the Sun and the Moon.wav Pre-gap length 0:00:02.35 Peak level 100.0 %
Extraction speed 2.5 X
Track quality 99.9 %
Test CRC 87DD5355
Copy CRC 87DD5355
Track not present in AccurateRip database
Copy OK

Track 9 Filename I:\For new-team\Australis\2005 - Australis - Lifegiving (OM79632)\09. Australis - Barren Lands.wav Pre-gap length 0:00:02.35 Peak level 100.0 %
Extraction speed 3.2 X
Track quality 100.0 %
Test CRC F2B1E49C
Copy CRC F2B1E49C
Track not present in AccurateRip database
Copy OK

Track 10 Filename I:\For new-team\Australis\2005 - Australis - Lifegiving (OM79632)\10. Australis - Sacred Earth.wav Pre-gap length 0:00:02.35 Peak level 100.0 %
Extraction speed 3.3 X
Track quality 100.0 %
Test CRC F5C3751E
Copy CRC F5C3751E
Track not present in AccurateRip database
Copy OK

None of the tracks are present in the AccurateRip database

No errors occurred

End of status report

- CUETools DB Plugin V2.1.6

[CTDB TOCID: 2.zuduOya9j12JIlo_JU_KxSo0Y-] disk not present in database
Submit result: 2.zuduOya9j12JIlo_JU_KxSo0Y- has been uploaded

==== Log checksum E73742B5E075AB99C4C4AB46900E31EA61F45D6C7AEE4DA017AF41096414B196 ====

[CUETools log; Date: 12.11.2015 17:35:56; Version: 2.1.4]
[CTDB TOCID: 2.zuduOya9j12JIlo_JU_KxSo0Y-] found.
Track | CTDB Status
1 | (1/1) Accurately ripped
2 | (1/1) Accurately ripped
3 | (1/1) Accurately ripped
4 | (1/1) Accurately ripped
5 | (1/1) Accurately ripped
6 | (1/1) Accurately ripped
7 | (1/1) Accurately ripped
8 | (1/1) Accurately ripped
9 | (1/1) Accurately ripped
10 | (1/1) Accurately ripped
[AccurateRip ID: 00112878-00891720-840a940a] disk not present in database.

Track Peak [ CRC32 ] [W/O NULL] [ LOG ]
-- 100,0 [64FFBE5A] [3F00455A]
01 100,0 [39D978F3] [A57E0B7C] CRC32
02 100,0 [E98D7A67] [EE14211B] CRC32
03 100,0 [824B357C] [A406406E] CRC32
04 100,0 [AE27E2FC] [8372489D] CRC32
05 100,0 [5B520054] [8E9CC75C] CRC32
06 100,0 [AB4779E7] [267DA99E] CRC32
07 100,0 [E2D7D5A0] B6BCD52 CRC32
08 100,0 [87DD5355] [99E356BC] CRC32
09 100,0 [F2B1E49C] [CC564A77] CRC32
10 100,0 [F5C3751E] [1A3FFCD6] CRC32
Thanks to DrStandBy
DOWNLOAD LINKS
(Premium Recommended)


Links are Interchangeable - No Password - Single Extraction
Direct Download

Tags: Australis, Lifegiving

Australis - Lifegiving (2005) Download via Hotfile Rapidshare Fileserve Megaupload & FileSonic, Australis - Lifegiving (2005) free torrent downloads included crack, serial, keygen.Australis - Lifegiving (2005) Fast Download via Rapidshare Hotfile Fileserve Filesonic Megaupload, Australis - Lifegiving (2005) Torrents and Emule Download or anything related.
Leave a Comment
Your Name:
E-Mail:
Add Comments:

Enter Code: