Casablanca - Riding A Black Swan (2013)

Download Now

Casablanca - Riding A Black Swan (2013)

Casablanca - Riding A Black Swan (2013)
EAC Rip | FLAC (Img) + Cue + Log ~ 313 Mb | MP3 CBR320 ~ 114 Mb
Scans Included (JPG, 600 dpi) | RAR 5% Recovery
Melodic Hard Rock, Glam | Gain #88883759662

"Casablanca is a Swedish rock band with members from several other famous groups: Josephine Forsman from the Sahara Hotnights (drums), Erik Stenemo from Melody Club (guitar), Anders Ljung from Space Age Baby Jane (vocals), Ryan Roxie from Roxy 77 (guitar) Mats Rubarth who previously played football in AIK (bass) and Erik Almström from Bullet (guitar). In the final of Melodifestivalen 2010 they performed with the 2009 winning song La voix along with 2009 winner Malena Ernman. Later in the year released the single Downtown. 2012 came the debut album Apocalyptic Youth, followed by the album Riding a Black Swan, 2013."

Casablanca - Riding A Black Swan (2013)

Wiki | Discogs | All Music
***************

Casablanca - Riding A Black Swan (2013)

Track List:

01. The Giant Dreamless Sleep [04:02]
02. Hail The Liberation [03:43]
03. Dead End Street Revisited [03:22]
04. It's Alright [04:11]
05. Barriers [04:07]
06. Riding A Black Swan [03:30]
07. Some Misty Morning [03:26]
08. Heartbreak City [02:30]
09. No Devil In Me [03:38]
10. Just For The Nite [04:17]

Exact Audio Copy V1.0 beta 3 from 29. August 2011

EAC extraction logfile from 7. December 2013, 12:47

Casablanca / Riding A Black Swan

Used drive : SlimtypeDVD A DS8A5SH Adapter: 0 ID: 1

Read mode : Secure
Utilize accurate stream : Yes
Defeat audio cache : Yes
Make use of C2 pointers : No

Read offset correction

: 6
Overread into Lead-In and Lead-Out : No
Fill up missing offset samples with silence : Yes
Delete leading and trailing silent blocks : No
Null samples used in CRC calculations : Yes
Used interface
: Native Win32 interface for Win NT & 2000

Used output format : User Defined Encoder
Selected bitrate : 320 kBit/s
Quality : High
Add ID3 tag : No
Command line compressor : C:\Program Files (x86)\Exact Audio Copy\Flac\flac.exe
Additional command line options : -V -8 -T "Date=%year%" -T "Genre=%genre%" %source%

TOC of the extracted CD Track | Start | Length | Start sector | End sector
--1 | 0:00.00 | 4:01.13 | 0 | 18087 2 | 4:01.13 | 3:42.59 | 18088 | 34796 3 | 7:43.72 | 3:21.09 | 34797 | 49880 4 | 11:05.06 | 4:10.63 | 49881 | 68693 5 | 15:15.69 | 4:06.06 | 68694 | 87149 6 | 19:22.00 | 3:29.28 | 87150 | 102852 7 | 22:51.28 | 3:25.68 | 102853 | 118295 8 | 26:17.21 | 2:29.43 | 118296 | 129513 9 | 28:46.64 | 3:37.44 | 129514 | 145832
10 | 32:24.33 | 4:16.17 | 145833 | 165049

Range status and errors

Selected range Filename D:\My Music\Casablanca - 2013 Riding A Black Swan\Casablanca - Riding A Black Swan.wav Peak level 97.6 %
Extraction speed 1.6 X
Range quality 100.0 %
Test CRC 6E843D9B
Copy CRC 6E843D9B
Copy OK

No errors occurred


AccurateRip summary

Track 1 not present in database
Track 2 not present in database
Track 3 not present in database
Track 4 not present in database
Track 5 not present in database
Track 6 not present in database
Track 7 not present in database
Track 8 not present in database
Track 9 not present in database
Track 10 not present in database

None of the tracks are present in the AccurateRip database

End of status report

==== Log checksum 2A6A081AD59B55E5FA67D9E844FB81E298DBD859DF8D58D160619BD713238324 ====

foobar2000 1.2.6 / Dynamic Range Meter 1.1.1
log date: 2015-11-13 16:28:54

Analyzed: Casablanca / Riding A Black Swan

DR Peak RMS Duration Track

DR6 -0.22 dB -7.95 dB 4:01 01-The Giant Dreamless Sleep
DR6 -0.22 dB -7.38 dB 3:43 02-Hail The Liberation
DR6 -0.21 dB -7.30 dB 3:21 03-Dead End Street Revisited
DR6 -0.93 dB -8.09 dB 4:11 04-It's Alright
DR6 -0.22 dB -7.42 dB 4:06 05-Barriers
DR7 -0.23 dB -8.41 dB 3:29 06-Riding A Black Swan
DR6 -0.22 dB -7.85 dB 3:26 07-Some Misty Morning
DR6 -0.23 dB -7.27 dB 2:30 08-Heartbreak City
DR6 -0.22 dB -7.67 dB 3:38 09-No Devil In Me
DR6 -0.21 dB -8.00 dB 4:16 10-Just For The Nite

Number of tracks: 10
Official DR value: DR6

Samplerate: 44100 Hz
Channels: 2
Bits per sample: 16
Bitrate: 1041 kbps
Codec: FLAC

[CUETools log; Date: 13.11.2015 16:28:54; Version: 2.1.5]
[CTDB TOCID: R08ZrDbsiISPKRNANhObHfU_kIo-] found.
Track | CTDB Status
1 | (1/1) Accurately ripped
2 | (1/1) Accurately ripped
3 | (1/1) Accurately ripped
4 | (1/1) Accurately ripped
5 | (1/1) Accurately ripped
6 | (1/1) Accurately ripped
7 | (1/1) Accurately ripped
8 | (1/1) Accurately ripped
9 | (1/1) Accurately ripped
10 | (1/1) Accurately ripped
[AccurateRip ID: 000e0a5c-006f93b3-9408980a] found.
Track [ CRC | V2 ] Status
01 [e4f4e840|6c6e484b] (0+1/3) Accurately ripped
02 [18201dd8|088bb172] (0+1/3) Accurately ripped
03 [9066cbf8|340e58c7] (0+1/3) Accurately ripped
04 [fdf4dc04|e0753b70] (0+1/3) Accurately ripped
05 [fa8817f9|eab27a36] (0+1/3) Accurately ripped
06 [d0157b00|48aed9c2] (0+1/3) Accurately ripped
07 [3d213b79|b5fe07f7] (0+1/3) Accurately ripped
08 [4d0196e1|24fefc62] (0+1/3) Accurately ripped
09 [9ccd95b2|dc00a364] (0+1/3) Accurately ripped
10 [340893d6|8802c1b1] (0+1/3) Accurately ripped

Track Peak [ CRC32 ] [W/O NULL] [ LOG ]
-- 97,6 [6E843D9B] [F7A220F1] CRC32
01 97,4 [3335286A] E3184AE
02 97,4 [99CF263C] [10D056F8]
03 97,6 [AB612C6E] [17383E70]
04 89,8 [DC054587] [EB9A4055]
05 97,4 [D78DA690] [07066F1B]
06 97,4 [A703657D] [88543998]
07 97,4 [C5BA2699] [E36739A7]
08 97,4 [A488C55B] [6B42768C]
09 97,5 [706EF505] [96ACBE08]
10 97,6 [6D014BE4] [97EC1F2F]

Casablanca - Riding A Black Swan (2013)

DOWNLOAD LINKS
Buy Premium From My Links To Get Resumable Support & Max Speed & To Support Me


Links are Interchangeable - No Password - Single Extraction
Direct Download

Tags: Casablanca, Riding

Casablanca - Riding A Black Swan (2013) Download via Hotfile Rapidshare Fileserve Megaupload & FileSonic, Casablanca - Riding A Black Swan (2013) free torrent downloads included crack, serial, keygen.Casablanca - Riding A Black Swan (2013) Fast Download via Rapidshare Hotfile Fileserve Filesonic Megaupload, Casablanca - Riding A Black Swan (2013) Torrents and Emule Download or anything related.
Leave a Comment
Your Name:
E-Mail:
Add Comments:

Enter Code: