Barbra Streisand - Stoney End (1971) [1994, Digitally Remastered]

Download Now

Barbra Streisand - Stoney End (1971) [1994, Digitally Remastered]

Barbra Streisand - Stoney End (1971) [1994, Digitally Remastered]
Vocal, Pop/Rock | EAC Rip | FLAC, Img+CUE + LOG + Full Scans-600dpi (JPEG) | 31:59 Min | 244,64 Mb
Label: Columbia Records / CBS Inc. (USA) | Released: 1994

"
Stoney End is the twelfth studio album by Barbra Streisand. It was produced by Richard Perry. Released in 1971, it was a change in direction for Streisand with a more upbeat contemporary pop sound. The album hit #10 on the Billboard Top 200, where it was certified Platinum with sales of 1 million copies. In the UK the album entered the chart at #28. The album has sold 1,5 million copies worldwide.
"

Barbra Streisand - Stoney End (1971) [1994, Digitally Remastered]


Produced: by Richard Perry
Arranged: by Gene Page, Perry Botkin, Jr., and Claus Ogerman
Original Recording Engineers & Mixers: Glen Kolotkin, Rafael O. Valentin, Sy Mitchell, Pete Weiss, Bob Breault
Cover Design & Photography: Tom Wilkes and Barry Feinstein
Background Singers: Clydie King, Merry Clayton, Vanetta Fields, Shirley Mathews, Jackie Ward, Toni Wine, Maeretha Stewart, Glenna Session, Eddie Kendrix, Sharone De Vault, & Jerry Cook

Footnotes:

* "Stoney End" and 4 others were first recorded July 30, 1970 in a marathon, all-night session, which ended around 5:30 a.m. The album was completed in December 1970
* Barbra remembers in Just For The Record: "Richard (Perry) was always trying to get me to sing on the beat, which I found very hard to do. We had a bet over whether "Stoney End" would be a hit. He said yes, I said no. The bet was settled when we were driving on Sunset Boulevard, and a local DJ announced on the radio that the record had just hit #1 in Los Angeles. What a great way to lose!"
* Randy Newman piano on tracks 5 & 11
* Reached #10 on pop album charts, Barbra's return to Top 10 after nearly 5 years
* Quadraphonic LP also released (out of print), with alternate versions of tracks 6 (some add'l vocal layering), 7 (many different vocal sections), and 8 (many different vocal sections)
* Digitally restored/remastered CD released
* BB: 2-20-71 / 29 / #10 || G, 4/28/71; P, 11/21/86

Barbra Streisand - Stoney End (1971) [1994, Digitally Remastered]

Barbra Streisand - Stoney End (1971) [1994, Digitally Remastered]


Release of the album: 1971, February [LP Columbia, Cat.# KC 30378, USA]
Release of this CD: 1994 [CD Columbia / CBS Inc. (USA), Cat.# CK 30378 / UPC: 07464303782]
Manufactured by Columbia Records / CBS Inc.
"Columbia" is the exclusive trademark of CBS Inc.


Tracklist:

01. I Don't Know Where I Stand (03:45)
(J. Mitchell)
02. Hands Off The Man (Flim Flam Man) (02:33)
(L. Nyro)
03. If You Could Read My Mind (03:51)
(G. Lightfoot)
04. Just A Little Lovin' (Early In The Mornin') (02:29)
(B. Mann / C. Weil)
05. Let Me Go (from the Columbia Pictures Release "Pursuit Of Happiness") (02:23)
(R. Newman)
06. Stoney End (02:59)
(L. Nyro)
07. No Easy Way Down (03:52)
(G. Goffin / C. King)
08. Time And Love (03:40)
(L. Nyro)
09. Maybe (03:10)
(H. Nilsson)
10. Free The People (03:18)
(B. Keith)
11. I'll Be Home (02:56)
(R. Newman)

Exact Audio Copy V1.0 beta 3 from 29. August 2011

EAC extraction logfile from 22. April 2015, 18:35

Barbra Streisand / Stoney End

Used drive : PIONEER BD-RW BDR-208D Adapter: 5 ID: 0

Read mode : Secure
Utilize accurate stream : Yes
Defeat audio cache : Yes
Make use of C2 pointers : No

Read offset correction : 667
Overread into Lead-In and Lead-Out : No
Fill up missing offset samples with silence : Yes
Delete leading and trailing silent blocks : No
Null samples used in CRC calculations : Yes
Used interface : Native Win32 interface for Win NT & 2000

Used output format : Internal WAV Routines
Sample format : 44.100 Hz; 16 Bit; Stereo

TOC of the extracted CD

Track | Start | Length | Start sector | End sector
--
1 | 0:00.00 | 3:45.37 | 0 | 16911
2 | 3:45.37 | 2:33.33 | 16912 | 28419
3 | 6:18.70 | 3:50.65 | 28420 | 45734
4 | 10:09.60 | 2:28.60 | 45735 | 56894
5 | 12:38.45 | 2:22.40 | 56895 | 67584
6 | 15:01.10 | 2:59.12 | 67585 | 81021
7 | 18:00.22 | 3:52.00 | 81022 | 98421
8 | 21:52.22 | 3:39.70 | 98422 | 114916
9 | 25:32.17 | 3:09.68 | 114917 | 129159
10 | 28:42.10 | 3:17.47 | 129160 | 143981
11 | 31:59.57 | 2:56.20 | 143982 | 157201

Range status and errors

Selected range

Filename D:\BlondStyle\Barbra Streisand - Stoney End.wav

Peak level 100.0 %
Extraction speed 6.7 X
Range quality 100.0 %
Test CRC 317AC198
Copy CRC 317AC198
Copy OK

No errors occurred

AccurateRip summary

Track 1 cannot be verified as accurate (confidence 3) [29A8405E], AccurateRip returned [8EF3B4F9] (AR v2)
Track 2 accurately ripped (confidence 2) [02288AE0] (AR v2)
Track 3 accurately ripped (confidence 2) [32C1567B] (AR v2)
Track 4 accurately ripped (confidence 2) [D88B2FC1] (AR v2)
Track 5 accurately ripped (confidence 2) [3638F78D] (AR v2)
Track 6 accurately ripped (confidence 2) [6714B445] (AR v2)
Track 7 accurately ripped (confidence 2) [A6E84E44] (AR v2)
Track 8 accurately ripped (confidence 2) [A0537366] (AR v2)
Track 9 accurately ripped (confidence 2) [D57FB618] (AR v2)
Track 10 accurately ripped (confidence 2) [A4FE18D5] (AR v2)
Track 11 accurately ripped (confidence 2) [3A64556D] (AR v2)

10 track(s) accurately ripped
1 track(s) could not be verified as accurate

Some tracks could not be verified as accurate

End of status report

- CUETools DB Plugin V2.1.3

[CTDB TOCID: LCyD8iwuruKXvrNU1xq4GF_K40w-] found, Submit result: LCyD8iwuruKXvrNU1xq4GF_K40w- has been confirmed
[97ae45d9] (4/4) Accurately ripped

==== Log checksum 64B9D78B0B7D15A7B4A142A4C68B92A2442CF8AF1BCBB7D619F5CFD9A520BB97 ====

foobar2000 1.3.7 / Dynamic Range Meter 1.1.1
log date: 2015-11-14 23:45:28

Analyzed: Barbra Streisand / Stoney End

DR Peak RMS Duration Track

DR10 -2.97 dB -14.99 dB 3:45 01-I Don't Know Where I Stand
DR10 -0.86 dB -13.74 dB 2:33 02-Hands Off The Man (Flim Flam Man)
DR11 -2.41 dB -15.18 dB 3:51 03-If You Could Read My Mind
DR12 -1.25 dB -16.23 dB 2:29 04-Just A Little Lovin' (Early In The Mornin')
DR11 -2.01 dB -16.08 dB 2:23 05-Let Me Go (from the Columbia Pictures Release 'Pursuit Of Happiness')
DR12 -0.79 dB -15.68 dB 2:59 06-Stoney End
DR10 0.00 dB -14.66 dB 3:52 07-No Easy Way Down
DR10 -1.74 dB -14.23 dB 3:40 08-Time And Love
DR13 -1.22 dB -17.76 dB 3:10 09-Maybe
DR11 -1.04 dB -15.28 dB 3:18 10-Free The People
DR10 -2.34 dB -18.03 dB 2:56 11-I'll Be Home

Number of tracks: 11
Official DR value: DR11

Samplerate: 44100 Hz
Channels: 2
Bits per sample: 16
Bitrate: 858 kbps
Codec: FLAC



password: BlondStyle


DOWNLOAD LINKS
Buy Premium From My Links To Get Resumable Support & Max Speed & To Support Me


Links are Interchangeable - No Password - Single Extraction
Direct Download

Tags: Barbra, Streisand, Stoney, Digitally, Remastered

Barbra Streisand - Stoney End (1971) [1994, Digitally Remastered] Download via Hotfile Rapidshare Fileserve Megaupload & FileSonic, Barbra Streisand - Stoney End (1971) [1994, Digitally Remastered] free torrent downloads included crack, serial, keygen.Barbra Streisand - Stoney End (1971) [1994, Digitally Remastered] Fast Download via Rapidshare Hotfile Fileserve Filesonic Megaupload, Barbra Streisand - Stoney End (1971) [1994, Digitally Remastered] Torrents and Emule Download or anything related.
Leave a Comment
Your Name:
E-Mail:
Add Comments:

Enter Code: