Wishbone Ash - Here To Hear (1989)

Download Now

Wishbone Ash - Here To Hear (1989)

Wishbone Ash - Here To Hear (1989)
Rock | 1cd | EAC Rip | Flac + Cue + Log | covers
I.R.S. IRSD-62006 | rel: 1989 | 280Mb

This is a pretty good Wishbone Ash album in the same style as No Fire Without Smoke from 1978. Just like on that album, several songs remind me a bit of Dire Straits, only much better. Both of these albums also end with a two-part composition. Don't be fooled by this, however. This is not really progressive rock. Just very good and ophisticated hard rock music; well written, well performed, well recorded and well produced.
There are more keyboards on this album than on most Wishbone Ash albums, but only ever in the background - never as a lead instrument. The bass guitar is often loud and bottom. Especially on the Hole In My Heart (Parts 1), where the bass almost has that wonderful Chris Sqiure sound. The electric guitars are very well played (as on most Wishbone Ash albums). Apart from the very good Hole In My Heart suite, there is really no need to mention specific songs, everything is good but nothing is outstanding. Not the ultimate place to start, but one of the better Wishbone Ash albums I have heard so far. ~Progarchives

Track listing
01. Cosmic Jazz (3:32)
02. Keeper Of The Light (3:55)
03. Mental Radio (4:55)
04. Walk On Water (4:03)
05. Witness To Wonder (4:15)
06. Lost Cause In Paradise (4:46)
07. Why Don't We (6:15)
08. In The Case (3:30)
09. Hole In My Heart (Part 1) (3:06)
10. Hole In My Heart (Part 2) (4:32)
~ (42:50)

Personnel
- Martin Turner - bass, vocals, keyboards
- Andy Powell - guitar, vocals
- Ted Turner - guitar, vocals, lap steel
- Steve Upton - drums

Exact Audio Copy V1.0 beta 2 from 29. April 2011

Отчёт EAC об извлечении, выполненном 21. апреля 2012, 14:29

Wishbone Ash / Here To Hear

Дисковод: Optiarc DVD RW AD-7260S Adapter: 0 ID: 1

Режим чтения : Достоверность
Использование точного потока : Да
Отключение кэша аудио : Да
Использование указателей C2 : Нет

Коррекция смещения при чтении : 48
Способность читать области Lead-in и Lead-out : Нет
Заполнение пропущенных сэмплов тишиной : Да
Удаление блоков с тишиной в начале и конце : Нет
При вычислениях CRC использовались нулевые сэмплы : Да
Интерфейс : Встроенный Win32-интерфейс для Win NT/2000

Выходной формат : Пользовательский кодировщик
Выбранный битрейт : 128 kBit/s
Качество : Высокий
Добавление ID3-тега : Нет
Утилита сжатия : C:\Program Files\Exact Audio Copy\FLAC\FLAC.EXE
Дополнительные параметры : -6 -V -T "ARTIST=%artist%" -T "TITLE=%title%" -T "ALBUM=%albumtitle%" -T "DATE=%year%" -T "TRACKNUMBER=%tracknr%" -T "GENRE=%genre%" -T "COMMENT=%comment%" -T "BAND=%albuminterpret%" -T "COMPOSER=%composer%" %haslyrics%--tag-from-

TOC извлечённого CD Трек | Старт | Длительность | Начальный сектор | Конечный сектор

1 | 0:00.00 | 3:31.65 | 0 | 15889
2 | 3:31.65 | 3:55.07 | 15890 | 33521
3 | 7:26.72 | 4:55.30 | 33522 | 55676
4 | 12:22.27 | 4:03.18 | 55677 | 73919
5 | 16:25.45 | 4:14.45 | 73920 | 93014
6 | 20:40.15 | 4:45.70 | 93015 | 114459
7 | 25:26.10 | 6:15.37 | 114460 | 142621
8 | 31:41.47 | 3:30.15 | 142622 | 158386
9 | 35:11.62 | 3:05.70 | 158387 | 172331
10 | 38:17.57 | 4:32.28 | 172332 | 192759

Характеристики диапазона извлечения и сообщения об ошибках

Выбранный диапазон Имя файла D:\FLAC\Wishbone Ash - Here To Hear - 1989.wav Пиковый уровень 85.4 %
Скорость извлечения 3.8 X
Качество диапазона 100.0 %
CRC теста E8B2EE40
CRC копии E8B2EE40
Копирование... OK

Ошибок не произошло

Конец отчёта

==== Контрольная сумма отчёта 21E036161A09CD1276CB19145C9083BA75B0CEC04707E64C4F0F15619D271E7C ====

[CUETools log; Date: 2015.11.14. 10:21:20; Version: 2.1.5]
[AccurateRip ID: 00100fa9-00819c18-820a0a0a] found.
Track [ CRC | V2 ] Status
01 [8f3136d7|b5ff618d] (06+03/15) Accurately ripped
02 [3ad0b390|dd100297] (06+03/15) Accurately ripped
03 [44673fd0|b7e9b070] (06+03/15) Accurately ripped
04 b9bae87|97ee0063 (06+03/15) Accurately ripped
05 [412d4ea9|078e7c61] (06+03/15) Accurately ripped
06 d5451c9|cb959f8f (06+03/15) Accurately ripped
07 [48a622bf|916d3ed2] (06+03/15) Accurately ripped
08 [860c7803|2a615328] (06+03/15) Accurately ripped
09 [e9a190ab|7590d80b] (06+03/15) Accurately ripped
10 [0793e8e0|b92b16b2] (06+03/15) Accurately ripped
Offsetted by -19:
01 [d6193c66] (03/15) Accurately ripped
02 [d324018e] (03/15) Accurately ripped
03 [978a7005] (03/15) Accurately ripped
04 [6e1b37d1] (03/15) Accurately ripped
05 [4fb17b40] (03/15) Accurately ripped
06 [40523c9b] (03/15) Accurately ripped
07 [0c4bc2c5] (03/15) Accurately ripped
08 [33345bd6] (03/15) Accurately ripped
09 [67213fd9] (03/15) Accurately ripped
10 [c433d7d0] (03/15) Accurately ripped

Track Peak [ CRC32 ] [W/O NULL] [ LOG ]
-- 85,4 [E8B2EE40] DEC6B00 CRC32
01 85,4 D213827 [3DDB52C6]
02 77,2 [09508317] [75773221]
03 71,4 [7709C3E0] [74D7BEE3]
04 73,9 [F3CFEFAB] [A708FE61]
05 59,9 [2D02285D] [2DA12A7F]
06 63,6 [D9208E5F] [4047FFD7]
07 65,2 [65C81422] [D3C15230]
08 73,6 [FA03542F] [7A73FC23]
09 64,1 [5A4292B0] [95F95E88]
10 63,0 [3F79CD90] [2466BA17]

Thx to teimuraz67
DOWNLOAD LINKS:
Buy Premium To Support Me & Get Resumable Support & Max Speed


Links are Interchangeable - No Password - Single Extraction
Direct Download

Tags: Wishbone

Wishbone Ash - Here To Hear (1989) Download via Hotfile Rapidshare Fileserve Megaupload & FileSonic, Wishbone Ash - Here To Hear (1989) free torrent downloads included crack, serial, keygen.Wishbone Ash - Here To Hear (1989) Fast Download via Rapidshare Hotfile Fileserve Filesonic Megaupload, Wishbone Ash - Here To Hear (1989) Torrents and Emule Download or anything related.
Leave a Comment
Your Name:
E-Mail:
Add Comments:

Enter Code: