Lee Ritenour - Friendship 2 / The Captain's Journey (1979/78) {Wounded Bird}

Download Now

Lee Ritenour - Friendship 2 / The Captain's Journey (1979/78) {Wounded Bird}

Lee Ritenour - Friendship 2 / The Captain's Journey (1979/78) {Wounded Bird}
EAC 0.99pb5 | FLAC tracks level 8 | Cue+Log+M3U | Full Scans 300dpi | 460MB + 5% Recovery
Genre: Fusion

"Guitarist Lee Ritenour had just switched from Epic to Elektra when he cut Captain's Journey in 1978. It was a followup to the successful crossover work Captain Fingers and used a similar strategy: tight, hook-laden arrangements, polished production, and minimal solo space. What individual things it has are dominated by Ritenour, a supremely talented guitarist who doesn't display that much of it with these arrangements."

Track List

Friendship (1979)
01. Bullet Train (Ritenour-Watts) 5:24
02. Tighten Up (Watts) 5:13
03. The Situation (Ritenour-Grusin) 4:34
04. Let's Talk About It (Grusin) 4:57
05. Here Today Hear Tomorrow (Laboriel) 5:23
06. Waterwings (Grusin) 6:55
07. The Real Thing (Grusin) 5:59

Produced by Lee Ritenour & Don Grusin

The Captain's Journey (1978)
08. The Captain's Journey: Part I: The Calm/Part II: The Storm (Ritenour) - 8:00
09. Morning Glory (Ritenour-Champlin) - 5:52
10. Suger Loaf Express (Ritenour) - 5:07
11. Matchmakers (Ritenour) - 4:56
12. What Do You Want? (Grusin) - 5:29
13. That's Enough for Me (Grusin-Austin) - 5:25
14. Etude (Grusin) - 3:50

musicians
Alex Acuna,Patti Austin, Tom Baylor, Ray Beckstein, Bill Champlin, Paulinho Da Costa, Eddy Daniels, Sue Evans
Steve Forman, David Foster, Steve Gadd, Jay Graydon, Dave Grusin, Mitch Holder, Anthony Jackson, Abraham Laboriel
Dave Nadien, Larry Rosen, Patrice Rushen, Steve Thornton, Carmen Twillie, Ian Underwood, Dave Valentin
Ed Walsh, Ernie Watts, Lee Ritenour

Produced by Lee Ritenour & Dave Grusin

Exact Audio Copy V0.99 prebeta 5 from 4. May 2009

EAC extraction logfile from 23. December 2009, 23:07

Lee Ritenour / Friendship 2-Captain's Journey

Used drive : PLEXTOR CD-R PREMIUM2 Adapter: 1 ID: 1

Read mode : Secure
Utilize accurate stream : Yes
Defeat audio cache : Yes
Make use of C2 pointers : No

Read offset correction

: 30
Overread into Lead-In and Lead-Out : No
Fill up missing offset samples with silence : Yes
Delete leading and trailing silent blocks : No
Null samples used in CRC calculations : Yes
Used interface
: Installed external ASPI interface
Gap handling
: Appended to previous track

Used output format : User Defined Encoder
Selected bitrate : 32 kBit/s
Quality : High
Add ID3 tag : No
Command line compressor : C:\Programmi\FLAC\flac.exe
Additional command line options : -8 -V -T "ARTIST=%a" -T "TITLE=%t" -T "ALBUM=%g" -T "DATE=%y" -T "TRACKNUMBER=%n" -T "GENRE=%m" -T "COMMENT=EAC FLAC -8" %s

TOC of the extracted CD Track | Start | Length | Start sector | End sector
--1 | 0:00.00 | 5:24.09 | 0 | 24308 2 | 5:24.09 | 5:12.52 | 24309 | 47760 3 | 10:36.61 | 4:34.29 | 47761 | 68339 4 | 15:11.15 | 4:57.17 | 68340 | 90631 5 | 20:08.32 | 5:22.71 | 90632 | 114852 6 | 25:31.28 | 6:54.43 | 114853 | 145945 7 | 32:25.71 | 5:59.09 | 145946 | 172879 8 | 38:25.05 | 8:00.18 | 172880 | 208897 9 | 46:25.23 | 5:52.07 | 208898 | 235304
10 | 52:17.30 | 5:07.30 | 235305 | 258359
11 | 57:24.60 | 4:55.50 | 258360 | 280534
12 | 62:20.35 | 5:28.57 | 280535 | 305191
13 | 67:49.17 | 5:24.39 | 305192 | 329530
14 | 73:13.56 | 3:50.26 | 329531 | 346806

Track 1 Filename D:\My Rip\01 - Bullet Train.wav Pre-gap length 0:00:02.00 Peak level 79.1 %
Track quality 100.0 %
Test CRC 139FB67D
Copy CRC 139FB67D
Track not present in AccurateRip database
Copy OK

Track 2 Filename D:\My Rip\02 - Tighten Up.wav Peak level 87.6 %
Track quality 100.0 %
Test CRC B2B66093
Copy CRC B2B66093
Track not present in AccurateRip database
Copy OK

Track 3 Filename D:\My Rip\03 - The Situation.wav Peak level 86.4 %
Track quality 100.0 %
Test CRC 915F9E7F
Copy CRC 915F9E7F
Track not present in AccurateRip database
Copy OK

Track 4 Filename D:\My Rip\04 - Let's Talk About It.wav Peak level 82.8 %
Track quality 100.0 %
Test CRC 9B05BDF2
Copy CRC 9B05BDF2
Track not present in AccurateRip database
Copy OK

Track 5 Filename D:\My Rip\05 - Here Today Hear Tomorrow.wav Peak level 96.6 %
Track quality 100.0 %
Test CRC 782ECF83
Copy CRC 782ECF83
Track not present in AccurateRip database
Copy OK

Track 6 Filename D:\My Rip\06 - Waterwings.wav Peak level 82.3 %
Track quality 100.0 %
Test CRC 9383DF41
Copy CRC 9383DF41
Track not present in AccurateRip database
Copy OK

Track 7 Filename D:\My Rip\07 - The Real Thing.wav Peak level 92.0 %
Track quality 100.0 %
Test CRC 17935B5A
Copy CRC 17935B5A
Track not present in AccurateRip database
Copy OK

Track 8 Filename D:\My Rip\08 - The Captain's Journey.wav Peak level 82.6 %
Track quality 100.0 %
Test CRC 1DF9ECE9
Copy CRC 1DF9ECE9
Track not present in AccurateRip database
Copy OK

Track 9 Filename D:\My Rip\09 - Morning Glory.wav Peak level 72.4 %
Track quality 100.0 %
Test CRC 1D0E053E
Copy CRC 1D0E053E
Track not present in AccurateRip database
Copy OK

Track 10 Filename D:\My Rip\10 - Suger Loaf Express.wav Peak level 75.9 %
Track quality 100.0 %
Test CRC C0DF2BD4
Copy CRC C0DF2BD4
Track not present in AccurateRip database
Copy OK

Track 11 Filename D:\My Rip\11 - Matchmakers.wav Peak level 100.0 %
Track quality 100.0 %
Test CRC CA882814
Copy CRC CA882814
Track not present in AccurateRip database
Copy OK

Track 12 Filename D:\My Rip\12 - What Do You Want.wav Peak level 85.1 %
Track quality 100.0 %
Test CRC 8EAC24B7
Copy CRC 8EAC24B7
Track not present in AccurateRip database
Copy OK

Track 13 Filename D:\My Rip\13 - That's Enough For Me.wav Peak level 87.2 %
Track quality 100.0 %
Test CRC 2AEFABC5
Copy CRC 2AEFABC5
Track not present in AccurateRip database
Copy OK

Track 14 Filename D:\My Rip\14 - Etude.wav Peak level 42.2 %
Track quality 100.0 %
Test CRC 72725624
Copy CRC 72725624
Track not present in AccurateRip database
Copy OK

None of the tracks are present in the AccurateRip database

No errors occurred

End of status report

Analyzed: Lee Ritenour / Friendship 2-Captain's Journey

DR Peak RMS Duration Track

DR13 -2.03 dB -16.77 dB 5:24 01-Bullet Train
DR14 -1.15 dB -17.47 dB 5:13 02-Tighten Up
DR16 -1.26 dB -19.85 dB 4:34 03-The Situation
DR14 -1.64 dB -18.03 dB 4:57 04-Let's Talk About It
DR16 -0.30 dB -18.05 dB 5:23 05-Here Today Hear Tomorrow
DR13 -1.69 dB -17.97 dB 6:55 06-Waterwings
DR15 -0.72 dB -19.60 dB 5:59 07-The Real Thing
DR14 -1.65 dB -18.64 dB 8:00 08-The Captain's Journey
DR13 -2.80 dB -19.43 dB 5:52 09-Morning Glory
DR15 -2.39 dB -20.05 dB 5:07 10-Suger Loaf Express
DR15 0.00 dB -17.83 dB 4:56 11-Matchmakers
DR14 -1.39 dB -18.00 dB 5:29 12-What Do You Want
DR15 -1.19 dB -20.03 dB 5:25 13-That's Enough For Me
DR12 -7.49 dB -22.90 dB 3:50 14-Etude

Number of tracks: 14
Official DR value: DR14

Samplerate: 44100 Hz
Channels: 2
Bits per sample: 16
Bitrate: 644 kbps
Codec: FLAC

Lee Ritenour - Friendship 2 / The Captain's Journey (1979/78) {Wounded Bird}

Lee Ritenour - Friendship 2 / The Captain's Journey (1979/78) {Wounded Bird}

Lee Ritenour - Friendship 2 / The Captain's Journey (1979/78) {Wounded Bird}

Rip by Sarchiapone


DOWNLOAD LINKS
Buy Premium From My Links To Get Resumable Support & Max Speed & To Support Me


Links are Interchangeable - No Password - Single Extraction
Direct Download

Tags: Ritenour, Friendship, Captain, Journey, Wounded

Lee Ritenour - Friendship 2 / The Captain's Journey (1979/78) {Wounded Bird} Download via Hotfile Rapidshare Fileserve Megaupload & FileSonic, Lee Ritenour - Friendship 2 / The Captain's Journey (1979/78) {Wounded Bird} free torrent downloads included crack, serial, keygen.Lee Ritenour - Friendship 2 / The Captain's Journey (1979/78) {Wounded Bird} Fast Download via Rapidshare Hotfile Fileserve Filesonic Megaupload, Lee Ritenour - Friendship 2 / The Captain's Journey (1979/78) {Wounded Bird} Torrents and Emule Download or anything related.
Leave a Comment
Your Name:
E-Mail:
Add Comments:

Enter Code: