Van Morrison - Into The Music (1979)

Download Now

Van Morrison - Into The Music (1979)

Van Morrison - Into The Music (1979)
Rock | 1cd | EAC Rip | Ape + Cue + Log | covers
Exile/Polydor 537 540-2 | rel: 1998 | 320Mb

Into the Music may not seem like a great Van Morrison record, one of his very best, upon first listen, especially if you're trying to compare it to such masterpieces as Astral Weeks and Moondance, or even Tupelo Honey. Yet this is certainly one of his best records, one that is quietly winning and thoroughly ingratiating, sounding stronger, even irresistible, with each new spin.
In a sense, this is the definitive post-classic-era Morrison, since it summarizes all of his attributes while showcasing each at a peak. Musically, this is a little harder and rootsier than its two predecessors, but only a little; this is still remarkably relaxed music, where the charm is in its ease of delivery and compositions. The difference, there's more grit in the performances, more substance in the songs, letting Van the craftsman shine through along with his spirituality and grace. There may be no masterworks on the level of his early-'70s records, but these are deft, subtle songs that are full-bodied songs, unlike their counterparts on this album's immediate predecessors or successors. There's little question that this is not a knockout record, and some could even be excused if they find its charms elusive -- but once you've entered Van's sizable cult, few records sound as much like Morrison as this, a record that served as culmination of where he was coming from and served as blueprint for where he was going. ~Allmusic

Track listing
01. Bright Side Of The Road (3:47)
02. Full Force Gale (3:14)
03. Steppin' Out Queen (5:29)
04. Troubadours (4:41)
05. Rolling Hills (2:53)
06. You Make Me Feel So Free (4:09)
07. Angelou (6:51)
08. And The Healing Has Begun (8:02)
09. It's All In The Game (5:10)
10. You Know What They're Writing About (5:41)
~ (49:59)

EAC extraction logfile from 25. November 2005, 17:38 for CD
Van Morrison / Into The Music

Used drive : PLEXTOR CD-R PREMIUM Adapter: 1 ID: 0
Read mode : Secure with NO C2, accurate stream, disable cache
Read offset correction : 30
Overread into Lead-In and Lead-Out : No

Used output format : Internal WAV Routines 44.100 Hz; 16 Bit; Stereo

Other options :
Fill up missing offset samples with silence : Yes
Delete leading and trailing silent blocks : No
Installed external ASPI interface

Range status and errors
Selected range
Filename H:\CDImage.wav Peak level 99.5 %
Range quality 100.0 %
CRC 5103BC5A
Copy OK

No errors occured

End of status report

[CUETools log; Date: 2015.11.14. 15:37:56; Version: 2.1.5]
[AccurateRip ID: 00111ec6-008ca63e-850bb60a] found.
Track [ CRC | V2 ] Status
01 [f876999e|ea0351cb] (019+019/117) Accurately ripped
02 [8cffd3d5|f6eb56e7] (019+019/116) Accurately ripped
03 [d0f93181|a7ed8222] (019+019/116) Accurately ripped
04 [1783b3c6|e18514df] (019+019/116) Accurately ripped
05 a0fab15|a96b8d50 (019+019/117) Accurately ripped
06 [8995829b|684cddb4] (019+019/116) Accurately ripped
07 [77e77446|d3003942] (019+019/118) Accurately ripped
08 [a49ecfad|8386fd02] (018+019/116) Accurately ripped
09 [e4eec4fa|b83dc563] (019+019/117) Accurately ripped
10 f78ebd5|d68a6ba9 (019+019/116) Accurately ripped
Offsetted by 664:
01 [eec3a754] (046/117) Accurately ripped
02 [d2cd3ffe] (045/116) Accurately ripped
03 [04424c6a] (045/116) Accurately ripped
04 [2cc5b76c] (045/116) Accurately ripped
05 [6a273193] (046/117) Accurately ripped
06 [df70ccba] (045/116) Accurately ripped
07 [e27c400f] (047/118) Accurately ripped
08 [4cdcf60d] (046/116) Accurately ripped
09 [5d6cde22] (046/117) Accurately ripped
10 [c994fa9d] (045/116) Accurately ripped
Offsetted by 557:
01 [41fff645] (000/117) No match (V2 was not tested)
02 [c140b819] (000/116) No match (V2 was not tested)
03 [6c4efad1] (000/116) No match (V2 was not tested)
04 [e4f5fa08] (000/116) No match (V2 was not tested)
05 [4671c77a] (000/117) No match (V2 was not tested)
06 [c31cc790] (000/116) No match (V2 was not tested)
07 [031e2b60] (000/118) No match (V2 was not tested)
08 664cccf (000/116) No match (V2 was not tested)
09 [8aa956b3] (000/117) No match (V2 was not tested)
10 [ddb3c13c] (000/116) No match (V2 was not tested)

Track Peak [ CRC32 ] [W/O NULL] [ LOG ]
-- 99,5 [5103BC5A] [4427889A] CRC32
01 99,5 44739F5 [63F44FD2]
02 99,5 [463ACADD] B26C73F
03 99,5 [85E615C4] [116D865E]
04 99,5 [F6460788] [19440AA4]
05 99,5 [770FFE81] [A0E08D26]
06 99,5 F861CBE [15FF9A96]
07 99,5 [1EC3596A] [74B847CB]
08 99,5 [9C550772] [578D8131]
09 99,4 [215ED76A] [EE735EDD]
10 99,5 [10D8D1CC] [FA12BA66]

original uploader unknown
password: asd
DOWNLOAD LINKS
Buy Premium From My Links To Get Resumable Support & Max Speed & To Support Me


Links are Interchangeable - No Password - Single Extraction
Direct Download

Tags: Morrison

Van Morrison - Into The Music (1979) Download via Hotfile Rapidshare Fileserve Megaupload & FileSonic, Van Morrison - Into The Music (1979) free torrent downloads included crack, serial, keygen.Van Morrison - Into The Music (1979) Fast Download via Rapidshare Hotfile Fileserve Filesonic Megaupload, Van Morrison - Into The Music (1979) Torrents and Emule Download or anything related.
Leave a Comment
Your Name:
E-Mail:
Add Comments:

Enter Code: