VA - 538 Hitzone: Christmas 2015 (2015)

Download Now

VA - 538 Hitzone: Christmas 2015 (2015)

VA - 538 Hitzone: Christmas 2015 (2015)
2CD | EAC Rip | FLAC (Img) + Cue + Log ~ 1,07 Gb | MP3 CBR320 ~ 423 Mb
Scans Included (PNG, 300 dpi) | RAR 5% Recovery
Pop, Holiday | Universal Music #474 685-4

"The best Christmas hits by famous artists Hitzone! New release by the Dutch radio station Radio 538 (103 FM) and Universal Music B.V., includes: Justin Bieber & Mariah Carey, Coldplay, Wham!, Melanie Thornton, Chris Rea, Elvis Presley, John Legend, Queen, Ariana Grande, John Lennon & Yoko Ono, Amy Winehouse, Leona Lewis, Lady Gaga, Whitney Houston, ABBA and others ..."

VA - 538 Hitzone: Christmas 2015 (2015)

Track List CD1:

01. Sam Smith - Have Yourself A Merry Little Christmas [02:50]
02. Justin Bieber & Mariah Carey - All I Want For Christmas Is You [04:01]
03. The Common Linnets - Christmas Around Me [03:01]
04. Coldplay - Christmas Lights [04:04]
05. Gary Fomdeck - I'll Be There This Christmas [03:32]
06. Alain & Dane Clark - Going Back For Christmas [04:20]
07. Pentatonix - It's The Most Wonderful Time Of The Year [03:04]
08. Band Aid 30 - Do They Know It's Christmas [03:49]
09. Trijntje Oosterhuis feat. Candy Dulfer - Merry Christmas Baby [03:49]
10. Chris Brown - This Christmas [03:19]
11. Wham! - Last Christmas [04:24]
12. Melanie Thornton - Wonderful Dream (Holidays Are Coming) [03:52]
13. Chris Rea - Driving Home For Christmas [04:01]
14. Do - Everyday Is Christmas [03:56]
15. Ceelo Green - Please Come Home For Christmas [03:10]
16. Colbie Caillat - Santa Baby [02:56]
17. Berget Lewis & Bo Saris - Angels In The Snow [03:44]
18. Elvis Presley & Guus Meeuwis - Blue Christmas [03:12]
19. Fun. - Sleigh Ride [03:36]
20. Owl City - Kiss Me Babe, It's Christmas Time [03:49]
21. Marc Broussard - It's Almost Christmas [04:14]
22. John Legend - What A Wonderful World [02:17]

Exact Audio Copy V1.1 from 23. June 2015

EAC extraction logfile from 13. November 2015, 20:28

- / 538 Hitzone Christmas (CD1)

Used drive : PIONEER DVD-RW DVR-221L Adapter: 1 ID: 1

Read mode : Secure
Utilize accurate stream : Yes
Defeat audio cache : Yes
Make use of C2 pointers : No

Read offset correction

: 6
Overread into Lead-In and Lead-Out : No
Fill up missing offset samples with silence : Yes
Delete leading and trailing silent blocks : No
Null samples used in CRC calculations : Yes
Used interface
: Native Win32 interface for Win NT & 2000

Used output format : Internal WAV Routines
Sample format : 44.100 Hz; 16 Bit; Stereo

TOC of the extracted CD Track | Start | Length | Start sector | End sector
--1 | 0:00.00 | 2:49.29 | 0 | 12703 2 | 2:49.29 | 4:00.47 | 12704 | 30750 3 | 6:50.01 | 3:00.57 | 30751 | 44307 4 | 9:50.58 | 4:03.39 | 44308 | 62571 5 | 13:54.22 | 3:31.01 | 62572 | 78397 6 | 17:25.23 | 4:19.46 | 78398 | 97868 7 | 21:44.69 | 3:03.74 | 97869 | 111667 8 | 24:48.68 | 3:48.71 | 111668 | 128838 9 | 28:37.64 | 3:48.52 | 128839 | 145990
10 | 32:26.41 | 3:18.15 | 145991 | 160855
11 | 35:44.56 | 4:23.21 | 160856 | 180601
12 | 40:08.02 | 3:51.29 | 180602 | 197955
13 | 43:59.31 | 4:00.12 | 197956 | 215967
14 | 47:59.43 | 3:55.11 | 215968 | 233603
15 | 51:54.54 | 3:09.47 | 233604 | 247825
16 | 55:04.26 | 2:55.58 | 247826 | 261008
17 | 58:00.09 | 3:43.22 | 261009 | 277755
18 | 61:43.31 | 3:11.60 | 277756 | 292140
19 | 64:55.16 | 3:35.48 | 292141 | 308313
20 | 68:30.64 | 3:48.21 | 308314 | 325434
21 | 72:19.10 | 4:13.69 | 325435 | 344478
22 | 76:33.04 | 2:16.05 | 344479 | 354683

Range status and errors

Selected range Filename K:\Post\538 Hitzone X-Mas 2015 (EAC)\CD1\538 Hitzone Christmas (CD1).wav Peak level 96.6 %
Extraction speed 8.7 X
Range quality 100.0 %
Test CRC 1FCCD97E
Copy CRC 1FCCD97E
Copy OK

No errors occurred

End of status report

foobar2000 1.2.6 / Dynamic Range Meter 1.1.1
log date: 2015-11-15 15:45:45

Analyzed: Alain & Dane Clark / 538 Hitzone Christmas 2015 (CD1) (1) Band Aid 30 / 538 Hitzone Christmas 2015 (CD1) (2) Berget Lewis & Bo Saris / 538 Hitzone Christmas 2015 (CD1) (3)

DR Peak RMS Duration Track

DR9 -0.65 dB -12.43 dB 4:20 06-Going Back For Christmas
DR9 -0.35 dB -12.52 dB 3:49 08-Do They Know It's Christmas
DR8 -1.35 dB -11.79 dB 3:43 17-Angels In The Snow

Number of tracks: 3
Official DR value: DR9

Samplerate: 44100 Hz
Channels: 2
Bits per sample: 16
Bitrate: 907 kbps
Codec: FLAC

Statistics for: 15-Please Come Home For Christmas
Number of samples: 8362536
Duration: 3:10
Left Right

Peak Value: -2.05 dB -1.50 dB
Avg RMS: -9.56 dB -9.44 dB
DR channel: 6.07 dB 5.91 dB

Official DR Value: DR6

Samplerate: 44100 Hz
Channels: 2
Bits per sample: 16
Bitrate: 907 kbps
Codec: FLAC

Analyzed: Chris Brown / 538 Hitzone Christmas 2015 (CD1) (1) Chris Rea / 538 Hitzone Christmas 2015 (CD1) (2) Colbie Caillat / 538 Hitzone Christmas 2015 (CD1) (3)

DR Peak RMS Duration Track

DR8 -1.54 dB -12.51 dB 3:18 10-This Christmas
DR11 -0.30 dB -12.31 dB 4:00 13-Driving Home For Christmas
DR10 -0.58 dB -12.44 dB 2:56 16-Santa Baby

Number of tracks: 3
Official DR value: DR10

Samplerate: 44100 Hz
Channels: 2
Bits per sample: 16
Bitrate: 907 kbps
Codec: FLAC

Analyzed: Coldplay / 538 Hitzone Christmas 2015 (CD1) (1) Do / 538 Hitzone Christmas 2015 (CD1) (2) Elvis Presley & Guus Meeuwis / 538 Hitzone Christmas 2015 (CD1) (3) Fun. / 538 Hitzone Christmas 2015 (CD1) (4)

DR Peak RMS Duration Track

DR9 -0.71 dB -12.11 dB 4:04 04-Christmas Lights
DR7 -1.80 dB -10.57 dB 3:55 14-Everyday Is Christmas
DR7 -2.10 dB -10.76 dB 3:12 18-Blue Christmas
DR9 -1.46 dB -11.75 dB 3:36 19-Sleigh Ride

Number of tracks: 4
Official DR value: DR8

Samplerate: 44100 Hz
Channels: 2
Bits per sample: 16
Bitrate: 907 kbps
Codec: FLAC

Analyzed: Gary Fomdeck / 538 Hitzone Christmas 2015 (CD1) (1) John Legend / 538 Hitzone Christmas 2015 (CD1) (2)

DR Peak RMS Duration Track

DR7 -2.38 dB -10.87 dB 3:31 05-I'll Be There This Christmas
DR8 -2.15 dB -13.46 dB 2:16 22-What A Wonderful World

Number of tracks: 2
Official DR value: DR7

Samplerate: 44100 Hz
Channels: 2
Bits per sample: 16
Bitrate: 907 kbps
Codec: FLAC

Analyzed: Justin Bieber & Mariah Carey / 538 Hitzone Christmas 2015 (CD1) (1) Marc Broussard / 538 Hitzone Christmas 2015 (CD1) (2)

DR Peak RMS Duration Track

DR8 -1.85 dB -11.82 dB 4:01 02-All I Want For Christmas Is You
DR9 -0.30 dB -11.20 dB 4:14 21-It's Almost Christmas

Number of tracks: 2
Official DR value: DR8

Samplerate: 44100 Hz
Channels: 2
Bits per sample: 16
Bitrate: 907 kbps
Codec: FLAC

Analyzed: Melanie Thornton / 538 Hitzone Christmas 2015 (CD1) (1) Owl City / 538 Hitzone Christmas 2015 (CD1) (2)

DR Peak RMS Duration Track

DR8 -2.50 dB -12.12 dB 3:51 12-Wonderful Dream (Holidays Are Coming)
DR6 -2.80 dB -12.70 dB 3:48 20-Kiss Me Babe, It's Christmas Time

Number of tracks: 2
Official DR value: DR7

Samplerate: 44100 Hz
Channels: 2
Bits per sample: 16
Bitrate: 907 kbps
Codec: FLAC

Statistics for: 07-It's The Most Wonderful Time Of The Year
Number of samples: 8113812
Duration: 3:04
Left Right

Peak Value: -2.07 dB -2.07 dB
Avg RMS: -10.84 dB -11.00 dB
DR channel: 7.70 dB 7.84 dB

Official DR Value: DR8

Samplerate: 44100 Hz
Channels: 2
Bits per sample: 16
Bitrate: 907 kbps
Codec: FLAC

Analyzed: Sam Smith / 538 Hitzone Christmas 2015 (CD1) (1) The Common Linnets / 538 Hitzone Christmas 2015 (CD1) (2) Trijntje Oosterhuis feat. Candy Dulfer / 538 Hitzone Christmas 2015 (CD1) (3) Wham! / 538 Hitzone Christmas 2015 (CD1) (4)

DR Peak RMS Duration Track

DR8 -3.15 dB -13.85 dB 2:49 01-Have Yourself A Merry Little Christmas
DR8 -1.66 dB -11.66 dB 3:01 03-Christmas Around Me
DR10 -0.30 dB -11.73 dB 3:49 09-Merry Christmas Baby
DR9 -1.40 dB -11.59 dB 4:23 11-Last Christmas

Number of tracks: 4
Official DR value: DR9

Samplerate: 44100 Hz
Channels: 2
Bits per sample: 16
Bitrate: 907 kbps
Codec: FLAC

[CUETools log; Date: 15.11.2015 15:46:10; Version: 2.1.5]
[CTDB TOCID: HKDr91kYdju4HFwY4N6OeKjK9Sg-] found.
Track | CTDB Status
1 | (2/2) Accurately ripped
2 | (2/2) Accurately ripped
3 | (2/2) Accurately ripped
4 | (2/2) Accurately ripped
5 | (2/2) Accurately ripped
6 | (2/2) Accurately ripped
7 | (2/2) Accurately ripped
8 | (2/2) Accurately ripped
9 | (2/2) Accurately ripped
10 | (2/2) Accurately ripped
11 | (2/2) Accurately ripped
12 | (2/2) Accurately ripped
13 | (2/2) Accurately ripped
14 | (2/2) Accurately ripped
15 | (2/2) Accurately ripped
16 | (2/2) Accurately ripped
17 | (2/2) Accurately ripped
18 | (2/2) Accurately ripped
19 | (2/2) Accurately ripped
20 | (2/2) Accurately ripped
21 | (2/2) Accurately ripped
22 | (2/2) Accurately ripped
[AccurateRip ID: 003ec542-03ef206b-31127916] disk not present in database.

Track Peak [ CRC32 ] [W/O NULL] [ LOG ]
-- 96,6 [1FCCD97E] [3E503088] CRC32
01 69,6 [13B71058] [18CD3BC0]
02 80,7 851410E [858147CC]
03 82,6 [69216202] [3C5EC95C]
04 92,1 [9E2FD327] [09D3AAD3]
05 76,0 [6A482CBC] [A35C3F9E]
06 92,7 [87E306C4] [1CEE0365]
07 78,8 [1BFCAA02] [6DD7A29B]
08 96,0 [C56A1EEE] [D179F1B4]
09 96,6 [8DEC80A3] [CE322D5B]
10 83,7 [8EB3A696] [AA89F808]
11 85,0 39DC3FF [51520395]
12 75,0 [5ADFFF6A] [F3DA9903]
13 96,6 [35A24EA1] [E5E4A219]
14 81,2 [4FB01230] [22218947]
15 84,1 [3765DAB5] [D827210D]
16 93,5 [C5B0E424] 501AA07
17 85,5 [F0E9C390] [EA75D365]
18 78,5 [3676CF36] [088E46A7]
19 84,5 [7FE6EA15] [922D1B52]
20 72,4 [73831BCD] [294AA98C]
21 96,6 [3225C57E] [95078698]
22 78,0 7883D13 [7073C86B]

VA - 538 Hitzone: Christmas 2015 (2015)

Track List CD2:

01. Queen - Thanks God It's Christmas [04:20]
02. Ariana Grande - Santa Tell Me [03:24]
03. Train - Shake Up Christmas [03:54]
04. Meghan Trainor - I'll Be Home [03:40]
05. Marco Borsato - Kerstmis [03:18]
06. Bianca Ryan - Why Couldn't It Be Christmas Everyday [04:06]
07. Justin Bieber - Mistletoe [03:04]
08. John Lennon & Yoko Ono - Happy Xmas (War Is Over) [03:35]
09. Amy Winehouse - I Saw Mummy Kissing Santa Claus [02:12]
10. Nick & Simon - Pak Van Mijn Hart (Kerst Versie) [02:52]
11. Destiny's Child - 8 Days Of Christmas [03:31]
12. George Michael - December Song (I Dreamed Of Christmas) [03:34]
13. Leona Lewis - Christmas (Baby Please Come Home) [02:38]
14. The Pussycat Dolls - Santa Baby [03:00]
15. Ne-Yo & Tasha Cobbs - The Christmas Song [02:38]
16. Lady Gaga - White Christmas ‘Live From A Very Gaga Thanksgiving' [03:23]
17. Sara Bareilles - Love Is Christmas [03:36]
18. Snow Patrol - When I Get Home For Christmas [04:18]
19. Whitney Houston - One Wish (For Christmas) [04:13]
20. Lady Antebellum - Baby, It's Cold Outside [03:33]
21. Maria Mena - Home For Christmas [03:50]
22. ABBA - Happy New Year [04:23]

Exact Audio Copy V1.1 from 23. June 2015

EAC extraction logfile from 13. November 2015, 22:41

- / 538 Hitzone Christmas 2015 (CD2)

Used drive : PIONEER DVD-RW DVR-221L Adapter: 1 ID: 1

Read mode : Secure
Utilize accurate stream : Yes
Defeat audio cache : Yes
Make use of C2 pointers : No

Read offset correction

: 6
Overread into Lead-In and Lead-Out : No
Fill up missing offset samples with silence : Yes
Delete leading and trailing silent blocks : No
Null samples used in CRC calculations : Yes
Used interface
: Native Win32 interface for Win NT & 2000

Used output format : Internal WAV Routines
Sample format : 44.100 Hz; 16 Bit; Stereo

TOC of the extracted CD Track | Start | Length | Start sector | End sector
--1 | 0:00.00 | 4:19.53 | 0 | 19477 2 | 4:19.53 | 3:23.60 | 19478 | 34762 3 | 7:43.38 | 3:53.03 | 34763 | 52240 4 | 11:36.41 | 3:39.39 | 52241 | 68704 5 | 15:16.05 | 3:17.45 | 68705 | 83524 6 | 18:33.50 | 4:05.17 | 83525 | 101916 7 | 22:38.67 | 3:03.21 | 101917 | 115662 8 | 25:42.13 | 3:34.17 | 115663 | 131729 9 | 29:16.30 | 2:11.39 | 131730 | 141593
10 | 31:27.69 | 2:51.22 | 141594 | 154440
11 | 34:19.16 | 3:30.29 | 154441 | 170219
12 | 37:49.45 | 3:33.55 | 170220 | 186249
13 | 41:23.25 | 2:37.61 | 186250 | 198085
14 | 44:01.11 | 2:59.73 | 198086 | 211583
15 | 47:01.09 | 2:37.52 | 211584 | 223410
16 | 49:38.61 | 3:22.53 | 223411 | 238613
17 | 53:01.39 | 3:35.15 | 238614 | 254753
18 | 56:36.54 | 4:17.24 | 254754 | 274052
19 | 60:54.03 | 4:12.67 | 274053 | 293019
20 | 65:06.70 | 3:32.62 | 293020 | 308981
21 | 68:39.57 | 3:49.41 | 308982 | 326197
22 | 72:29.23 | 4:22.26 | 326198 | 345873

Range status and errors

Selected range Filename K:\Post\538 Hitzone X-Mas 2015 (EAC)\CD2\538 Hitzone Christmas 2015 (CD2).wav Peak level 96.6 %
Extraction speed 8.6 X
Range quality 100.0 %
Test CRC 96829777
Copy CRC 96829777
Copy OK

No errors occurred

End of status report

foobar2000 1.2.6 / Dynamic Range Meter 1.1.1
log date: 2015-11-15 15:42:31

Statistics for: 09-I Saw Mummy Kissing Santa Claus
Number of samples: 5800032
Duration: 2:12
Left Right

Peak Value: -0.38 dB -0.30 dB
Avg RMS: -13.05 dB -12.52 dB
DR channel: 10.46 dB 9.67 dB

Official DR Value: DR10

Samplerate: 44100 Hz
Channels: 2
Bits per sample: 16
Bitrate: 909 kbps
Codec: FLAC

Analyzed: Ariana Grande / 538 Hitzone Christmas 2015 (CD2) (1) Bianca Ryan / 538 Hitzone Christmas 2015 (CD2) (2) Destiny's Child / 538 Hitzone Christmas 2015 (CD2) (3) George Michael / 538 Hitzone Christmas 2015 (CD2) (4)

DR Peak RMS Duration Track

DR7 -3.26 dB -13.12 dB 3:24 02-Santa Tell Me
DR6 -3.56 dB -11.29 dB 4:05 06-Why Couldn't It Be Christmas Everyday
DR9 -1.58 dB -12.58 dB 3:30 11-8 Days Of Christmas
DR8 -2.88 dB -13.47 dB 3:34 12-December Song (I Dreamed Of Christmas)

Number of tracks: 4
Official DR value: DR8

Samplerate: 44100 Hz
Channels: 2
Bits per sample: 16
Bitrate: 909 kbps
Codec: FLAC

Statistics for: 08-Happy Xmas (War Is Over)
Number of samples: 9447396
Duration: 3:34
Left Right

Peak Value: -0.51 dB -0.79 dB
Avg RMS: -13.55 dB -13.33 dB
DR channel: 10.73 dB 10.26 dB

Official DR Value: DR10

Samplerate: 44100 Hz
Channels: 2
Bits per sample: 16
Bitrate: 909 kbps
Codec: FLAC

Analyzed: Justin Bieber / 538 Hitzone Christmas 2015 (CD2) (1) Lady Antebellum / 538 Hitzone Christmas 2015 (CD2) (2)

DR Peak RMS Duration Track

DR11 -0.46 dB -13.07 dB 3:03 07-Mistletoe
DR9 -1.40 dB -12.08 dB 3:33 20-Baby, It's Cold Outside

Number of tracks: 2
Official DR value: DR10

Samplerate: 44100 Hz
Channels: 2
Bits per sample: 16
Bitrate: 909 kbps
Codec: FLAC

Statistics for: 16-White Christmas ‘Live From A Very Gaga Thanksgiving'
Number of samples: 8939364
Duration: 3:23
Left Right

Peak Value: -1.53 dB -1.27 dB
Avg RMS: -12.95 dB -12.51 dB
DR channel: 8.75 dB 8.84 dB

Official DR Value: DR9

Samplerate: 44100 Hz
Channels: 2
Bits per sample: 16
Bitrate: 909 kbps
Codec: FLAC

Statistics for: 13-Christmas (Baby Please Come Home)
Number of samples: 6959568
Duration: 2:38
Left Right

Peak Value: -0.60 dB -0.59 dB
Avg RMS: -11.28 dB -11.21 dB
DR channel: 8.89 dB 8.89 dB

Official DR Value: DR9

Samplerate: 44100 Hz
Channels: 2
Bits per sample: 16
Bitrate: 909 kbps
Codec: FLAC

Analyzed: Marco Borsato / 538 Hitzone Christmas 2015 (CD2) (1) Maria Mena / 538 Hitzone Christmas 2015 (CD2) (2)

DR Peak RMS Duration Track

DR7 -1.79 dB -10.54 dB 3:18 05-Kerstmis
DR10 -0.46 dB -16.23 dB 3:50 21-Home For Christmas

Number of tracks: 2
Official DR value: DR9

Samplerate: 44100 Hz
Channels: 2
Bits per sample: 16
Bitrate: 909 kbps
Codec: FLAC

Analyzed: Meghan Trainor / 538 Hitzone Christmas 2015 (CD2) (1) Ne-Yo & Tasha Cobbs / 538 Hitzone Christmas 2015 (CD2) (2)

DR Peak RMS Duration Track

DR8 -2.17 dB -13.70 dB 3:40 04-I'll Be Home
DR9 -3.07 dB -13.53 dB 2:38 15-The Christmas Song

Number of tracks: 2
Official DR value: DR8

Samplerate: 44100 Hz
Channels: 2
Bits per sample: 16
Bitrate: 909 kbps
Codec: FLAC

Statistics for: 10-Pak Van Mijn Hart (Kerst Versie)
Number of samples: 7554036
Duration: 2:51
Left Right

Peak Value: -1.32 dB -1.39 dB
Avg RMS: -9.81 dB -9.40 dB
DR channel: 7.28 dB 6.41 dB

Official DR Value: DR7

Samplerate: 44100 Hz
Channels: 2
Bits per sample: 16
Bitrate: 909 kbps
Codec: FLAC

Analyzed: Queen / 538 Hitzone Christmas 2015 (CD2) (1) Sara Bareilles / 538 Hitzone Christmas 2015 (CD2) (2) Snow Patrol / 538 Hitzone Christmas 2015 (CD2) (3)

DR Peak RMS Duration Track

DR10 -0.30 dB -11.75 dB 4:20 01-Thanks God It's Christmas
DR7 -2.59 dB -13.38 dB 3:35 17-Love Is Christmas
DR10 -0.62 dB -12.88 dB 4:17 18-When I Get Home For Christmas

Number of tracks: 3
Official DR value: DR9

Samplerate: 44100 Hz
Channels: 2
Bits per sample: 16
Bitrate: 909 kbps
Codec: FLAC

Statistics for: 14-Santa Baby
Number of samples: 7936824
Duration: 3:00
Left Right

Peak Value: -2.87 dB -2.87 dB
Avg RMS: -14.14 dB -14.47 dB
DR channel: 7.50 dB 7.82 dB

Official DR Value: DR8

Samplerate: 44100 Hz
Channels: 2
Bits per sample: 16
Bitrate: 909 kbps
Codec: FLAC

Analyzed: Train / 538 Hitzone Christmas 2015 (CD2) (1) Whitney Houston / 538 Hitzone Christmas 2015 (CD2) (2)

DR Peak RMS Duration Track

DR6 -2.68 dB -9.98 dB 3:53 03-Shake Up Christmas
DR6 -3.36 dB -11.26 dB 4:13 19-One Wish (For Christmas)

Number of tracks: 2
Official DR value: DR6

Samplerate: 44100 Hz
Channels: 2
Bits per sample: 16
Bitrate: 909 kbps
Codec: FLAC

foobar2000 1.2.6 / Dynamic Range Meter 1.1.1
log date: 2015-11-15 15:42:30

Statistics for: 22-Happy New Year
Number of samples: 11569488
Duration: 4:22
Left Right

Peak Value: -0.30 dB -0.30 dB
Avg RMS: -12.80 dB -12.18 dB
DR channel: 9.26 dB 8.71 dB

Official DR Value: DR9

Samplerate: 44100 Hz
Channels: 2
Bits per sample: 16
Bitrate: 909 kbps
Codec: FLAC

[CUETools log; Date: 15.11.2015 15:42:48; Version: 2.1.5]
[CTDB TOCID: fGCLP.IpZRIcFqKGb.8_5M4mWKA-] found.
Track | CTDB Status
1 | (2/2) Accurately ripped
2 | (2/2) Accurately ripped
3 | (2/2) Accurately ripped
4 | (2/2) Accurately ripped
5 | (2/2) Accurately ripped
6 | (2/2) Accurately ripped
7 | (2/2) Accurately ripped
8 | (2/2) Accurately ripped
9 | (2/2) Accurately ripped
10 | (2/2) Accurately ripped
11 | (2/2) Accurately ripped
12 | (2/2) Accurately ripped
13 | (2/2) Accurately ripped
14 | (2/2) Accurately ripped
15 | (2/2) Accurately ripped
16 | (2/2) Accurately ripped
17 | (2/2) Accurately ripped
18 | (2/2) Accurately ripped
19 | (2/2) Accurately ripped
20 | (2/2) Accurately ripped
21 | (2/2) Accurately ripped
22 | (2/2) Accurately ripped
[AccurateRip ID: 003c0b7f-03b8ecd0-4f120316] disk not present in database.

Track Peak [ CRC32 ] [W/O NULL] [ LOG ]
-- 96,6 [96829777] [0B46F77D] CRC32
01 96,6 [23E97C11] [2204E033]
02 68,6 [91C1F1B3] [7E6B893A]
03 73,4 [E6E3967E] [CC6B5F3F]
04 77,8 [5699D29A] [0003D00B]
05 81,3 [D94CF0B8] [1F0C0E4B]
06 66,3 [08C6DF4F] [F5B9337F]
07 94,8 [874995C0] [421EFD13]
08 94,2 [E70E9E7E] [E94E4DEE]
09 96,6 [69C519E2] [A531B88A]
10 85,8 [933D7B97] [38AEA18A]
11 83,3 [7702BD78] [AB3E20E0]
12 71,7 [78891A56] [9B654AB4]
13 93,4 31ECA67 [02A38843]
14 71,8 [FAA7347F] [C4645B75]
15 70,2 [9DF3E14C] [AA89C64F]
16 86,3 [0246AD97] [0FF07C3F]
17 74,1 [268FF96A] [23396691]
18 93,1 675DA6B [F816657A]
19 67,9 [9F937735] [90FF71E8]
20 85,1 [771A4810] [FE6FC121]
21 94,8 [D2BA822E] [D0922ADD]
22 96,6 [721643FC] [E14CA4EA]

VA - 538 Hitzone: Christmas 2015 (2015)

All thanks go to the original ripper(s) ...


DOWNLOAD LINKS
Buy Premium From My Links To Get Resumable Support & Max Speed & To Support Me


Links are Interchangeable - No Password - Single Extraction
Direct Download

Tags: Hitzone, Christmas

VA - 538 Hitzone: Christmas 2015 (2015) Download via Hotfile Rapidshare Fileserve Megaupload & FileSonic, VA - 538 Hitzone: Christmas 2015 (2015) free torrent downloads included crack, serial, keygen.VA - 538 Hitzone: Christmas 2015 (2015) Fast Download via Rapidshare Hotfile Fileserve Filesonic Megaupload, VA - 538 Hitzone: Christmas 2015 (2015) Torrents and Emule Download or anything related.
Leave a Comment
Your Name:
E-Mail:
Add Comments:

Enter Code: