World Trade - World Trade (1989)

Download Now

World Trade - World Trade (1989)

World Trade - World Trade (1989)
EAC Rip | FLAC: Image+Cue+Log | 345 Mb | MP3 CBR 320 kbps | 127 Mb | Scans | Time: 49:38
Genre: Progressive Rock | Label: Polydor | Cat.№: 839 626-2

"US neo-progressive rock band World Trade finally followed-up their impressive 1989 self-titled debut in 1995 with Euphoria. At this point the band featured bassist/vocalist Billy Sherwood (who had briefly been a part of Yes) as well as guitarists Bruce Gowdy (ex-Unruly Child) and Jay Schellen (ex-Hurricane). World Trade's core sound remains unchanged from the debut. It's more or less a mellow progressive rock sound based on the later Yes style, with tranquil guitar melodies and Sherwood's high, Jon Anderson-style vocals."



Track Listing

01. The Painted Corner (01:44)
02. The Moment Is Here (04:29)
03. Can't Let You Go (04:14)
04. Life-Time (05:01)
05. Fight To Win (04:27)
06. Sense Of Freedom (05:41)
07. The Revolution Song (05:17)
08. One Last Chance (04:57)
09. Wasting Time (03:40)
10. Emotional Wasteland (04:30)
11. Open The Door (05:32)

Produced by Keith Olsen & World Trade

The Band

* Billy Sherwood - Lead & Backing Vocals, Bass
* Bruce Gowdy - Guitars, Vocals
* Guy Allison - Keyboards, Vocals
* Mark T. Williams - Drums, Percussion, Vocals

Exact Audio Copy V0.99 prebeta 4 from 23. January 2008

EAC extraction logfile from 13. February 2008, 20:10

World Trade / World Trade

Used drive : LITE-ON DVDRW SOHW-1653S Adapter: 2 ID: 1

Read mode : Secure
Utilize accurate stream : Yes
Defeat audio cache : Yes
Make use of C2 pointers : No

Read offset correction

: 12
Overread into Lead-In and Lead-Out : No
Fill up missing offset samples with silence : Yes
Delete leading and trailing silent blocks : No
Null samples used in CRC calculations : No
Used interface
: Installed external ASPI interface

Used output format : Internal WAV Routines
Sample format : 44.100 Hz; 16 Bit; Stereo

TOC of the extracted CD Track | Start | Length | Start sector | End sector
--1 | 0:00.32 | 1:44.68 | 32 | 7899 2 | 1:45.25 | 4:29.22 | 7900 | 28096 3 | 6:14.47 | 4:14.40 | 28097 | 47186 4 | 10:29.12 | 5:01.05 | 47187 | 69766 5 | 15:30.17 | 4:27.65 | 69767 | 89856 6 | 19:58.07 | 5:41.10 | 89857 | 115441 7 | 25:39.17 | 5:17.25 | 115442 | 139241 8 | 30:56.42 | 4:57.43 | 139242 | 161559 9 | 35:54.10 | 3:39.70 | 161560 | 178054
10 | 39:34.05 | 4:30.70 | 178055 | 198374
11 | 44:05.00 | 5:32.65 | 198375 | 223339

Range status and errors

Selected range Filename worldtrade2.wav Peak level 99.7 %
Range quality 100.0 %
Copy CRC BD022DB8
Copy OK

No errors occurred


AccurateRip summary

Track 1 cannot be verified as accurate (confidence 2) [EE83A2B7], AccurateRip returned [FFEB4157]
Track 2 cannot be verified as accurate (confidence 2) [27C8A179], AccurateRip returned [8E1118C7]
Track 3 cannot be verified as accurate (confidence 2) [D81240D3], AccurateRip returned [88741BC2]
Track 4 cannot be verified as accurate (confidence 2) [DBC76858], AccurateRip returned [7BFEA6DB]
Track 5 not present in database
Track 6 cannot be verified as accurate (confidence 2) [5C5ADE0A], AccurateRip returned [D2BFCCBD]
Track 7 cannot be verified as accurate (confidence 2) [4F7EDB87], AccurateRip returned [61E12E29]
Track 8 cannot be verified as accurate (confidence 2) [ABB1E0B6], AccurateRip returned [A8A94EF7]
Track 9 cannot be verified as accurate (confidence 2) [D8BC71A3], AccurateRip returned [46F63E7F]
Track 10 cannot be verified as accurate (confidence 2) [2DE02F28], AccurateRip returned [9C03C707]
Track 11 not present in database

9 track(s) could not be verified as accurate
2 track(s) not present in the AccurateRip database

No tracks could be verified as accurate
You may have a different pressing from the one(s) in the database

End of status report

Many thanks to the original uploader: hexonut
DOWNLOAD LINKS:
(Premium Recommended)


All above links are interchangable. No password
Direct Download

World Trade - World Trade (1989) Download via Hotfile Rapidshare Fileserve Megaupload & FileSonic, World Trade - World Trade (1989) free torrent downloads included crack, serial, keygen.World Trade - World Trade (1989) Fast Download via Rapidshare Hotfile Fileserve Filesonic Megaupload, World Trade - World Trade (1989) Torrents and Emule Download or anything related.
Leave a Comment
Your Name:
E-Mail:
Add Comments:

Enter Code: