David Torn - Prezens (2007) {ECM 1877}

Download Now

David Torn - Prezens (2007) {ECM 1877}

David Torn - Prezens (2007) {ECM 1877}
EAC 0.95b3 | FLAC tracks level 8 | Cue+Log+M3U | Full Scans 300dpi | 448MB + 5% Recovery
Genre: Jazz, Avant-Garde Jazz

"David Torn is a musical chameleon, moving effortlessly from soundtrack work to pop projects to edgy improv, extending his guitar with electronic programming, sampling, and overdubs. Here he sets out at the helm of an improvising quartet with some regular partners from the New York Downtown School (saxophonist Tim Berne, keyboard player Craig Taborn, and drummer Tom Rainey) and then transforms the results with live sampling and extended studio tinkerings until the present set of pieces emerge in all their fractured and compound glory. Sounds morph suddenly into other soundsÂ--funk into heavy metal, guitar into radio wave, drum into bass--and time stretches and contracts."

Track List
01. AK
02. Rest & Unrest
03. Structural Functions of Prezens
04. Bulbs
05. Them Buried Standing
06. Sink
07. Neck-Deep in the Harrow...
08. Ever More Other
09. Ring for Endless Travel
10. Miss Place, the Mist...
11. Transmit Regardless

musicians
David Torn - guitars, live-sampling
Tim Berne - alto saxophone
Craig Taborn - Fender Rhodes, Hammond B3, mellotron
Tom Rainey - drums

Produced by David Torn

Exact Audio Copy V0.99 prebeta 3 from 28. July 2007

EAC extraction logfile from 26. March 2008, 22:20

David Torn, Tim Berne, Craig Taborn, Tom Rainey / Prezens

Used drive : SONY DVD RW AW-G170A Adapter: 3 ID: 0

Read mode : Secure
Utilize accurate stream : Yes
Defeat audio cache : Yes
Make use of C2 pointers : No

Read offset correction

: 48
Overread into Lead-In and Lead-Out : No
Fill up missing offset samples with silence : Yes
Delete leading and trailing silent blocks : No
Null samples used in CRC calculations : Yes
Used interface
: Installed external ASPI interface
Gap handling
: Appended to previous track

Used output format : User Defined Encoder
Selected bitrate : 192 kBit/s
Quality : High
Add ID3 tag : No
Command line compressor : C:\Program Files\Applications\Exact Audio Copy\Flac\flac.exe
Additional command line options : -8 -A tukey(0.25) -A gauss(0.1875) -b 4096 -V -T "artist=%a" -T "title=%t" -T "album=%g" -T "date=%y" -T "tracknumber=%n" -T "genre=%m" %s --sector-align

TOC of the extracted CD Track | Start | Length | Start sector | End sector
--1 | 0:00.00 | 9:19.70 | 0 | 41994 2 | 9:19.70 | 3:45.42 | 41995 | 58911 3 | 13:05.37 | 10:58.10 | 58912 | 108271 4 | 24:03.47 | 6:21.23 | 108272 | 136869 5 | 30:24.70 | 2:43.62 | 136870 | 149156 6 | 33:08.57 | 7:16.51 | 149157 | 181907 7 | 40:25.33 | 12:33.38 | 181908 | 238420 8 | 52:58.71 | 4:13.33 | 238421 | 257428 9 | 57:12.29 | 2:24.20 | 257429 | 268248
10 | 59:36.49 | 5:46.24 | 268249 | 294222
11 | 65:22.73 | 7:20.15 | 294223 | 327237

Track 1 Filename C:\Users\Eklade\Desktop\David Torn - Prezens\01 - David Torn, Tim Berne, Craig Taborn, Tom Rainey - AK.wav Pre-gap length 0:00:02.00 Peak level 87.4 %
Track quality 100.0 %
Test CRC C559240E
Copy CRC C559240E
Copy OK

Track 2 Filename C:\Users\Eklade\Desktop\David Torn - Prezens\02 - David Torn, Tim Berne, Craig Taborn, Tom Rainey - Rest & Unrest.wav Pre-gap length 0:00:00.06 Peak level 45.3 %
Track quality 100.0 %
Test CRC F3EEF182
Copy CRC F3EEF182
Copy OK

Track 3 Filename C:\Users\Eklade\Desktop\David Torn - Prezens\03 - David Torn, Tim Berne, Craig Taborn, Tom Rainey - Structural Functions Of Prezens.wav Pre-gap length 0:00:02.00 Peak level 96.6 %
Track quality 99.9 %
Test CRC 17C57317
Copy CRC 17C57317
Copy OK

Track 4 Filename C:\Users\Eklade\Desktop\David Torn - Prezens\04 - David Torn, Tim Berne, Craig Taborn, Tom Rainey - Bulbs.wav Pre-gap length 0:00:01.61 Peak level 94.4 %
Track quality 100.0 %
Test CRC 5157E532
Copy CRC 5157E532
Copy OK

Track 5 Filename C:\Users\Eklade\Desktop\David Torn - Prezens\05 - David Torn, Tim Berne, Craig Taborn, Tom Rainey - Them Buried Standing.wav Pre-gap length 0:00:02.93 Peak level 82.2 %
Track quality 100.0 %
Test CRC B1994A00
Copy CRC B1994A00
Copy OK

Track 6 Filename C:\Users\Eklade\Desktop\David Torn - Prezens\06 - David Torn, Tim Berne, Craig Taborn, Tom Rainey - Sink.wav Pre-gap length 0:00:00.10 Peak level 96.7 %
Track quality 99.9 %
Test CRC AEBFEFC1
Copy CRC AEBFEFC1
Copy OK

Track 7 Filename C:\Users\Eklade\Desktop\David Torn - Prezens\07 - David Torn, Tim Berne, Craig Taborn, Tom Rainey - Neck-Deep In The Harrow....wav Pre-gap length 0:00:02.40 Peak level 89.4 %
Track quality 100.0 %
Test CRC 78245BFB
Copy CRC 78245BFB
Copy OK

Track 8 Filename C:\Users\Eklade\Desktop\David Torn - Prezens\08 - David Torn, Tim Berne, Craig Taborn, Tom Rainey - Ever More Other.wav Pre-gap length 0:00:01.38 Peak level 90.2 %
Track quality 100.0 %
Test CRC 28C7A131
Copy CRC 28C7A131
Copy OK

Track 9 Filename C:\Users\Eklade\Desktop\David Torn - Prezens\09 - David Torn, Tim Berne, Craig Taborn, Tom Rainey - Ring For Endless Travel.wav Pre-gap length 0:00:01.05 Peak level 69.1 %
Track quality 100.0 %
Test CRC BC30A0C5
Copy CRC BC30A0C5
Copy OK

Track 10 Filename C:\Users\Eklade\Desktop\David Torn - Prezens\10 - David Torn, Tim Berne, Craig Taborn, Tom Rainey - Miss Place, The Mist....wav Pre-gap length 0:00:01.12 Peak level 94.4 %
Track quality 99.9 %
Test CRC 12CF9B08
Copy CRC 12CF9B08
Copy OK

Track 11 Filename C:\Users\Eklade\Desktop\David Torn - Prezens\11 - David Torn, Tim Berne, Craig Taborn, Tom Rainey - Transmit Regardless.wav Pre-gap length 0:00:01.88 Peak level 94.4 %
Track quality 100.0 %
Test CRC 7C816782
Copy CRC 7C816782
Copy OK

No errors occurred

End of status report

Analyzed: David Torn / Prezens

DR Peak RMS Duration Track

DR8 -1.17 dB -13.94 dB 9:20 01-AK
DR3 -6.87 dB -12.95 dB 3:46 02-Rest & Unrest
DR6 -0.30 dB -10.46 dB 10:58 03-Structural Functions Of Prezens
DR8 -0.50 dB -11.87 dB 6:21 04-Bulbs
DR8 -1.70 dB -13.56 dB 2:44 05-Them Buried Standing
DR7 -0.29 dB -10.46 dB 7:17 06-Sink
DR8 -0.97 dB -12.90 dB 12:34 07-Neck-Deep In The Harrow...
DR8 -0.89 dB -11.35 dB 4:13 08-Ever More Other
DR7 -3.20 dB -11.97 dB 2:24 09-Ring For Endless Travel
DR5 -0.50 dB -8.40 dB 5:46 10-Miss Place, The Mist...
DR8 -0.50 dB -11.58 dB 7:20 11-Transmit Regardless

Number of tracks: 11
Official DR value: DR7

Samplerate: 44100 Hz
Channels: 2
Bits per sample: 16
Bitrate: 812 kbps
Codec: FLAC

David Torn - Prezens (2007) {ECM 1877}

David Torn - Prezens (2007) {ECM 1877}

David Torn - Prezens (2007) {ECM 1877}

Rip by Eklade


DOWNLOAD LINKS
Buy Premium From My Links To Get Resumable Support & Max Speed & To Support Me


Links are Interchangeable - No Password - Single Extraction
Direct Download

Tags: Prezens

David Torn - Prezens (2007) {ECM 1877} Download via Hotfile Rapidshare Fileserve Megaupload & FileSonic, David Torn - Prezens (2007) {ECM 1877} free torrent downloads included crack, serial, keygen.David Torn - Prezens (2007) {ECM 1877} Fast Download via Rapidshare Hotfile Fileserve Filesonic Megaupload, David Torn - Prezens (2007) {ECM 1877} Torrents and Emule Download or anything related.
Leave a Comment
Your Name:
E-Mail:
Add Comments:

Enter Code: