Herbie Hancock - Monster (1980) [2015 FTG]

Download Now

Herbie Hancock - Monster (1980) [2015 FTG]

Herbie Hancock - Monster (1980) [2015 FTG]
EAC Rip | FLAC (Tracks) +CUE, LOG | 624 MB | Covers Included
Fusion | Label: Funkytowngrooves | Catalog Number: FTG-427

"Monster is the twenty-ninth album by pianist Herbie Hancock. As a follow-up to the "Feets" album, it avoided jazz and funk in favor of disco songs only. The track "Stars In Your Eyes" was issued as an extended (11:20) 12" single."

" AllMusic Review by Richard S. Ginell
Despite the PR hype about this being Herbie Hancock's first "rock" album, Monster is really another disco album, though more varied in texture, somewhat more subtle in execution, and blessedly rid of those vocoder vocals, though not of the real ones. "Saturday Night," despite the distinctive presence of Carlos Santana, sets the album's dancefloor tone. The rock element is supposedly supplied by Hancock on the newly-developed Clavitar, where, try as he might to articulate like a guitarist, the sound is still that of a mutated synthesizer. Alphonze Mouzon is wasted on drums, and guitarist Wah Wah Watson has a field day on his eponymous specialty. Most annoying (and defining) track -- "Go for It."
"


Exact Audio Copy V1.0 beta 3 from 29. August 2011

EAC extraction logfile from 7. November 2015, 10:25

Herbie Hancock / Monster

Used drive : GENERIC CDRCB05 Adapter: 4 ID: 0

Read mode : Secure
Utilize accurate stream : Yes
Defeat audio cache : Yes
Make use of C2 pointers : No

Read offset correction

: 102
Overread into Lead-In and Lead-Out : No
Fill up missing offset samples with silence : Yes
Delete leading and trailing silent blocks : No
Null samples used in CRC calculations : Yes
Used interface
: Native Win32 interface for Win NT & 2000
Gap handling
: Appended to previous track

Used output format : User Defined Encoder
Selected bitrate : 1024 kBit/s
Quality : High
Add ID3 tag : No
Command line compressor : C:\Program Files\FLAC\flac.exe
Additional command line options : -8 -V -T "ARTIST=%artist%" -T "TITLE=%title%" -T "ALBUM=%albumtitle%" -T "DATE=%year%" -T "TRACKNUMBER=%tracknr%" -T "GENRE=%genre%" -T "PERFORMER=%albuminterpret%" -T "COMPOSER=%composer%" %haslyrics%--tag-from-file=LYRICS="%lyricsfile%"%haslyrics% -T "ALBUMARTIST=%albumartist%" -T "DISCNUMBER=%cdnumber%" -T "TOTALDISCS=%totalcds%" -T "TOTALTRACKS=%numtracks%" -T "COMMENT=%comment%" %source% -o %dest%

TOC of the extracted CD Track | Start | Length | Start sector | End sector
--1 | 0:00.00 | 7:16.72 | 0 | 32771 2 | 7:16.72 | 7:07.41 | 32772 | 64837 3 | 14:24.38 | 7:37.02 | 64838 | 99114 4 | 22:01.40 | 8:05.64 | 99115 | 135553 5 | 30:07.29 | 6:26.66 | 135554 | 164569 6 | 36:34.20 | 5:53.42 | 164570 | 191086 7 | 42:27.62 | 4:05.60 | 191087 | 209521 8 | 46:33.47 | 3:46.61 | 209522 | 226532 9 | 50:20.33 | 3:32.01 | 226533 | 242433
10 | 53:52.34 | 7:03.13 | 242434 | 274171
11 | 60:55.47 | 4:03.54 | 274172 | 292450
12 | 64:59.26 | 11:17.03 | 292451 | 343228

Track 1 Filename G:\POSTS\Herbie Hancock - Monster (1980) [2015 FTG]\01 - Saturday Night.wav Pre-gap length 0:00:02.00 Peak level 98.4 %
Extraction speed 2.7 X
Track quality 100.0 %
Test CRC BFB891FA
Copy CRC BFB891FA
Track not present in AccurateRip database
Copy OK

Track 2 Filename G:\POSTS\Herbie Hancock - Monster (1980) [2015 FTG]\02 - Stars In Your Eyes.wav Pre-gap length 0:00:02.00 Peak level 99.0 %
Extraction speed 3.0 X
Track quality 100.0 %
Test CRC 12F040C6
Copy CRC 12F040C6
Track not present in AccurateRip database
Copy OK

Track 3 Filename G:\POSTS\Herbie Hancock - Monster (1980) [2015 FTG]\03 - Go For It.wav Pre-gap length 0:00:02.00 Peak level 100.0 %
Extraction speed 3.4 X
Track quality 100.0 %
Test CRC 4D0FD516
Copy CRC 4D0FD516
Track not present in AccurateRip database
Copy OK

Track 4 Filename G:\POSTS\Herbie Hancock - Monster (1980) [2015 FTG]\04 - Don't Hold It In.wav Pre-gap length 0:00:02.00 Peak level 99.4 %
Extraction speed 3.6 X
Track quality 100.0 %
Test CRC 28C4DF7D
Copy CRC 28C4DF7D
Track not present in AccurateRip database
Copy OK

Track 5 Filename G:\POSTS\Herbie Hancock - Monster (1980) [2015 FTG]\05 - Making Love.wav Pre-gap length 0:00:02.00 Peak level 98.3 %
Extraction speed 4.0 X
Track quality 100.0 %
Test CRC DECA7401
Copy CRC DECA7401
Track not present in AccurateRip database
Copy OK

Track 6 Filename G:\POSTS\Herbie Hancock - Monster (1980) [2015 FTG]\06 - It All Comes Round.wav Pre-gap length 0:00:02.00 Peak level 98.6 %
Extraction speed 3.8 X
Track quality 99.9 %
Test CRC 3B578F8D
Copy CRC 3B578F8D
Track not present in AccurateRip database
Copy OK

Track 7 Filename G:\POSTS\Herbie Hancock - Monster (1980) [2015 FTG]\07 - Making Love (7'' Version).wav Pre-gap length 0:00:02.00 Peak level 98.6 %
Extraction speed 4.2 X
Track quality 100.0 %
Test CRC D9B565BC
Copy CRC D9B565BC
Track not present in AccurateRip database
Copy OK

Track 8 Filename G:\POSTS\Herbie Hancock - Monster (1980) [2015 FTG]\08 - It All Comes Round (7'' Version).wav Pre-gap length 0:00:02.00 Peak level 98.4 %
Extraction speed 4.2 X
Track quality 100.0 %
Test CRC 3A33DFD8
Copy CRC 3A33DFD8
Track not present in AccurateRip database
Copy OK

Track 9 Filename G:\POSTS\Herbie Hancock - Monster (1980) [2015 FTG]\09 - Go For It (7'' Version).wav Pre-gap length 0:00:02.00 Peak level 99.8 %
Extraction speed 4.3 X
Track quality 100.0 %
Test CRC E7080B36
Copy CRC E7080B36
Track not present in AccurateRip database
Copy OK

Track 10 Filename G:\POSTS\Herbie Hancock - Monster (1980) [2015 FTG]\10 - Go For It (Special 12'' Version).wav Pre-gap length 0:00:02.00 Peak level 99.5 %
Extraction speed 4.8 X
Track quality 100.0 %
Test CRC 9F0C7783
Copy CRC 9F0C7783
Track not present in AccurateRip database
Copy OK

Track 11 Filename G:\POSTS\Herbie Hancock - Monster (1980) [2015 FTG]\11 - Stars In Your Eyes (7'' Version).wav Pre-gap length 0:00:02.00 Peak level 99.3 %
Extraction speed 4.6 X
Track quality 100.0 %
Test CRC 5F9B7290
Copy CRC 5F9B7290
Track not present in AccurateRip database
Copy OK

Track 12 Filename G:\POSTS\Herbie Hancock - Monster (1980) [2015 FTG]\12 - Stars In Your Eyes (Special Disco Remix).wav Pre-gap length 0:00:02.00 Peak level 99.1 %
Extraction speed 5.4 X
Track quality 100.0 %
Test CRC 93CBA12F
Copy CRC 93CBA12F
Track not present in AccurateRip database
Copy OK

None of the tracks are present in the AccurateRip database

No errors occurred

End of status report

==== Log checksum 1BB37B2EF7DD9C76647B01750A103D888CF2E70BEE0C7EDA582F2E72CE7579B9 ====

Tracklist:
01. Saturday Night
02. Stars In Your Eyes
03. Go For It
04. Don't Hold On
05. Making Love
06. It All Comes Round
07. Making Love (7 Inch Version)
08. It All Comes Around (7 Inch Version)
09. Go For It (7 Inch Version)
10. Go For It (Special 12 Inch Version)
11. Stars In Your Eyes (7 Inch Version)
12. Stars In Your Eyes (Special Disco Remix)

Personnel:
Herbie Hancock - synthesizer, piano, keyboards, vocals, clavinet, Mini Moog, Oberheim 8 Voice, Prophet 5, clavitar
Carlos Santana (1), Randy Hansen (6), Wah Wah Watson - guitar
Freddie Washington, - bass
Alphonse Mouzon - drums, synthesizer (3), keyboards
Sheila Escovedo - percussion
Gavin Christopher (2, 4), Greg Walker (1, 5), Oren Waters (3) - lead vocals
Bill Champlin - backing vocals, lead vocals (6)
Julia Tillman Waters, Luther Waters, Oren Waters, Maxine Willard Waters - backing vocals
DOWNLOAD LINKS
(Premium Recommended)


Links are Interchangeable - No Password - Single Extraction
Direct Download

Tags: Herbie, Hancock, Monster

Herbie Hancock - Monster (1980) [2015 FTG] Download via Hotfile Rapidshare Fileserve Megaupload & FileSonic, Herbie Hancock - Monster (1980) [2015 FTG] free torrent downloads included crack, serial, keygen.Herbie Hancock - Monster (1980) [2015 FTG] Fast Download via Rapidshare Hotfile Fileserve Filesonic Megaupload, Herbie Hancock - Monster (1980) [2015 FTG] Torrents and Emule Download or anything related.
Leave a Comment
Your Name:
E-Mail:
Add Comments:

Enter Code: