B.B. King - A Christmas Celebration Of Hope (2001)

Download Now

B.B. King - A Christmas Celebration Of Hope (2001)

B.B. King - A Christmas Celebration Of Hope (2001)
EAC | FLAC | Image (Cue&Log) ~ 355 Mb (incl 5%) | Mp3 (CBR320) ~ 150 Mb (incl 5%) | Scans included
Genre: Modern Electric Blues, Soul-Blues, Holidays | Label: MCA | # 112 756-2 | Time: 00:48:21

"A Christmas Celebration of Hope is the thirty ninth studio album by American blues guitarist and singer-songwriter B.B. King released in November 2001 through MCA Records. It is a holiday album. The album earned King two Grammy Awards at the 45th Grammy Awards (2003): he, Anthony Daigle and John Holbrook were presented the award for Best Traditional Blues Album and the track "Auld Lang Syne" earned King the award for Best Pop Instrumental Performance."

"Now that Charles Brown is gone, it's up to B.B. King to uphold the blues for Christmas. If this first collection of holiday music is any indication, he deserves his own igloo in the North Pole. Self-produced with his touring band in New Orleans during a spring heat wave, A Christmas Celebration of Hope finds King overcoming both the heat and Yuletide music clichés, turning out an inspired and rollicking album that is lit from within by King's generous spirit and gracious heart. Like others before him, King dipped into the blues and R&B holiday canon, but instead of just recycling well-worn classics, he plucked gems like "Blues Decorations" and "Backdoor Santa" out of obscurity and polished them to a high gloss. When King does cover standards, like "Merry Christmas, Baby" and "I'll Be Home for Christmas," he imbues them with his own earthy personality and sleek, restrained playing. King also includes two originals in this surprise package: "Celebration," which he first released in 1960, and the new instrumental, "Christmas Love." This record not only will make Christmas merrier for the listener, it will also help people suffering from cancer, HIV/AIDS, and diabetes, as King has donated the proceeds to the City of Hope, the world-renowned biomedical research and treatment center.

Review by Jaan Uhelszki, Amazon.com
"


"It took B.B. King a long time to get around to his first Christmas album, which didn't appear until about half a century into his recording career. It's an adequate, good-humored reprisal of various holiday chestnuts, among them some material with blues/R&B origins, like "Merry Christmas Baby." King wrote just one new song for the album, the instrumental "Christmas Love," though he did originally record another of the tracks, "Christmas Celebration," back in 1960. Wisely he plays "Auld Lang Syne" as a funky instrumental instead of vocalizing the singalong lyrics. In addition to periodic bursts of King's trademark guitar, there is plenty of brass and organ in the peppy arrangements. The Nashville String Machine adds its strings to just three tracks, which cuts down on over-produced excess (which is only a problem on "Please Come Home for Christmas"). It's hardly the first King you'll pull off your shelf, and not the first R&B Christmas album you'll turn to either, but you could do worse in the holiday season.

Review by Richie Unterberger, Allmusic.com
"




Tracklist:

01. Please Come Home For Christmas (04:53)
02. Lonesome Christmas (03:04)
03. Back Door Santa (03:26)
04. Christmas In Heaven (04:49)
05. I'll Be Home For Christmas (03:47)
06. To Someone That I Love (05:01)
07. Christmas Celebration (03:38)
08. Merry Christmas Baby (03:56)
09. Christmas Love (02:57)
10. Blue Decorations (03:27)
11. Christmas Comes But Once A Year (04:15)
12. Bringing In A Brand New Year (02:41)
13. Auld Lang Syne (02:21)


Exact Audio Copy V1.0 beta 6 from 9. April 2015

Отчёт EAC об извлечении, выполненном 8. августа 2015, 20:33

B.B. King / A Christmas Celebration Of Hope

Дисковод: Optiarc DVD RW AD-7173A Adapter: 1 ID: 1

Режим чтения : Достоверность
Использование точного потока : Да
Отключение кэша аудио : Да
Использование указателей C2 : Нет

Коррекция смещения при чтении : 48
Способность читать области Lead-in и Lead-out : Нет
Заполнение пропущенных сэмплов тишиной : Да
Удаление блоков с тишиной в начале и конце : Нет
При вычислениях CRC использовались нулевые сэмплы : Да
Интерфейс : Встроенный Win32-интерфейс для Win NT/2000

Выходной формат : Пользовательский кодировщик
Выбранный битрейт : 1024 kBit/s
Качество : Высокий
Добавление ID3-тега : Нет
Утилита сжатия : C:\Program Files (x86)\Exact Audio Copy\FLAC\FLAC.EXE
Дополнительные параметры : -8 -V -T "ARTIST=%artist%" -T "ALBUM=%albumtitle%" -T "DATE=%year%" -T "GENRE=%genre%" -T "COMMENT=ripped by pmx222" %source%

TOC извлечённого CD Трек | Старт | Длительность | Начальный сектор | Конечный сектор

1 | 0:00.00 | 4:53.63 | 0 | 22037
2 | 4:53.63 | 3:04.44 | 22038 | 35881
3 | 7:58.32 | 3:26.43 | 35882 | 51374
4 | 11:25.00 | 4:49.50 | 51375 | 73099
5 | 16:14.50 | 3:47.30 | 73100 | 90154
6 | 20:02.05 | 5:01.18 | 90155 | 112747
7 | 25:03.23 | 3:38.40 | 112748 | 129137
8 | 28:41.63 | 3:56.25 | 129138 | 146862
9 | 32:38.13 | 2:57.27 | 146863 | 160164
10 | 35:35.40 | 3:27.15 | 160165 | 175704
11 | 39:02.55 | 4:15.73 | 175705 | 194902
12 | 43:18.53 | 2:41.65 | 194903 | 207042
13 | 46:00.43 | 2:21.30 | 207043 | 217647

Характеристики диапазона извлечения и сообщения об ошибках

Выбранный диапазон Имя файла D:\pmx222\B.B. King - A Christmas Celebration Of Hope.wav Пиковый уровень 96.5 %
Скорость извлечения 7.0 X
Качество диапазона 100.0 %
CRC теста DB321BB5
CRC копии DB321BB5
Копирование... OK

Ошибок не произошло


AccurateRip: сводка

Трек 1 : извлечено точно (доверие 3) 3308917 (AR v2)
Трек 2 : извлечено точно (доверие 7) [74A9DC81] (AR v2)
Трек 3 : извлечено точно (доверие 7) [CD0BE245] (AR v2)
Трек 4 : извлечено точно (доверие 7) [6C209C90] (AR v2)
Трек 5 : извлечено точно (доверие 7) [14C7E60B] (AR v2)
Трек 6 : извлечено точно (доверие 7) 4C6AFC7 (AR v2)
Трек 7 : извлечено точно (доверие 3) [A84C2FF8] (AR v2)
Трек 8 : извлечено точно (доверие 6) [25509195] (AR v2)
Трек 9 : извлечено точно (доверие 7) [430FB44F] (AR v2)
Трек 10 : извлечено точно (доверие 7) [C527460F] (AR v2)
Трек 11 : извлечено точно (доверие 7) [66276A8B] (AR v2)
Трек 12 : извлечено точно (доверие 6) [CB6BDF87] (AR v2)
Трек 13 : извлечено точно (доверие 3) [CAD6C651] (AR v2)

Все треки извлечены точно

Конец отчёта

- CUETools DB Plugin V2.1.6

[CTDB TOCID: YdXpsG7_v9DmZMcbQRuaYaw6H20-] found
Submit result: already submitted
Track | CTDB Status
1 | ( 8/10) Accurately ripped
2 | (10/10) Accurately ripped
3 | ( 9/10) Accurately ripped
4 | (10/10) Accurately ripped
5 | (10/10) Accurately ripped
6 | (10/10) Accurately ripped
7 | ( 8/10) Accurately ripped
8 | (10/10) Accurately ripped
9 | (10/10) Accurately ripped
10 | ( 9/10) Accurately ripped
11 | (10/10) Accurately ripped
12 | ( 9/10) Accurately ripped
13 | ( 8/10) Accurately ripped

==== Контрольная сумма отчёта 0BB5CF6720549E7EC2822230D6D5B1546DF819E49D8A0B8982A3875F7FCBD38A ====

foobar2000 1.3.8 / Dynamic Range Meter 1.1.1
log date: 2015-11-23 16:15:42

Analyzed: B.B. King / A Christmas Celebration Of Hope

DR Peak RMS Duration Track

DR8 -0.31 dB -10.00 dB 4:54 01-Please Come Home For Christmas
DR8 -0.31 dB -9.35 dB 3:05 02-Lonesome Christmas
DR8 -0.31 dB -9.26 dB 3:27 03-Back Door Santa
DR8 -0.31 dB -10.13 dB 4:50 04-Christmas In Heaven
DR8 -0.31 dB -9.70 dB 3:47 05-I'll Be Home For Christmas
DR7 -0.31 dB -9.38 dB 5:01 06-To Someone That I Love
DR8 -0.31 dB -9.02 dB 3:39 07-Christmas Celebration
DR7 -0.31 dB -8.06 dB 3:56 08-Merry Christmas Baby
DR8 -0.31 dB -9.18 dB 2:57 09-Christmas Love
DR8 -0.31 dB -9.60 dB 3:27 10-Blue Decorations
DR8 -0.31 dB -9.04 dB 4:16 11-Christmas Comes But Once A Year
DR7 -0.41 dB -8.46 dB 2:42 12-Bringing In A Brand New Year
DR7 -0.31 dB -7.98 dB 2:21 13-Auld Lang Syne

Number of tracks: 13
Official DR value: DR8

Samplerate: 44100 Hz
Channels: 2
Bits per sample: 16
Bitrate: 884 kbps
Codec: FLAC

B.B. King - A Christmas Celebration Of Hope (2001)

B.B. King - A Christmas Celebration Of Hope (2001)

All thanks to original releaser - рмх222
Password: designol

DOWNLOAD LINKS
Buy Premium From My Links To Get Resumable Support & Max Speed & To Support Me


Links are Interchangeable - No Password - Single Extraction
Direct Download

Tags: Christmas, Celebration

B.B. King - A Christmas Celebration Of Hope (2001) Download via Hotfile Rapidshare Fileserve Megaupload & FileSonic, B.B. King - A Christmas Celebration Of Hope (2001) free torrent downloads included crack, serial, keygen.B.B. King - A Christmas Celebration Of Hope (2001) Fast Download via Rapidshare Hotfile Fileserve Filesonic Megaupload, B.B. King - A Christmas Celebration Of Hope (2001) Torrents and Emule Download or anything related.
Leave a Comment
Your Name:
E-Mail:
Add Comments:

Enter Code: