Javier Perianes - Manuel Blasco de Nebra: Piano Sonatas (2010)

Download Now

Javier Perianes - Manuel Blasco de Nebra: Piano Sonatas (2010)

Javier Perianes - Manuel Blasco de Nebra: Piano Sonatas (2010)
EAC | FLAC | Image (Cue&Log) ~ 263 Mb (incl 5%) | Mp3 (CBR320) ~ 208 Mb (incl 5%) | Scans included
Genre: Classical | Label: harmonia mundi | # HMC 902046 | Time: 01:11:25

"During his all-too-brief life, the Andalusian composer Manuel Blasco de Nebra (1750-1784) left behind a handful of keyboard works that evoke Scarlatti's concise forms and extraordinary powers of invention. Each of the sonatas consists of two movements: an adagio followed by a fast finale. The adagios are stark and full of gut-wrenching, slowly resolving dissonant moments, while unpredictable twists and turns characterize the almost Haydn-esque Allegros and Prestos, as well as the E minor Pastorela Minuet's discursive melodic trajectory. At times Blasco de Nebra foreshadows future soulmates; you might mistake the Op. 1 C minor sonata finale's persistent dotted rhythms for Schumann's. Javier Perianes understands what makes de Nebra tick, borne out by his varied articulations, wide dynamic spectrum, and shapely embellishments."

"The fame and enormous output of Domenico Scarlatti inspired various followers and imitators in Spain in the third quarter of the 18th century. The present disc is devoted to one of the least-known but potentially most interesting: Manuel Blaso de Nebra, who worked in Seville and died in 1784 at the age of 34. Most of his music, with the exception of some 30 works, has been destroyed. The Op. 1 group of sonatas excerpted here was published in 1780; the rest of the music comes from an undated monastery manuscript but seems to come from the same period. Potential buyers of this disc ought to be sympathetic to highly pianistic recordings of Scarlatti, but the choice of a modern instrument is reasonable in Blasco de Nebra's case; there's a good deal of evidence that Scarlatti, working several decades earlier, at least had the sound of a fortepiano in his head. And he took the potentially pianistic qualities of the music farther than did contemporaries like Carlos Seixas and even Antonio Soler; the sonatas, sizable two-movement structures, stand up to the Romantic treatments given them by pianist Javier Perianes. Sample the highly expressive material at the beginning of the Sonata in E minor Adagio movement (track 11); it's hard to imagine that really being done justice by a harpsichord. The two Pastorelas at the end of the program have clearer Baroque antecedents but are unusual in form; each opens with a slow movement, has a middle movement marked Pastorela, and ends with a minuet: they are unique adaptations of Classical multi-movement form to the pastoral idea from the Baroque universe, and they're quite charming pieces. Perianes and annotator Justo Romero (whose notes appear in Spanish, English, and German) succeed in their aim of stimulating further interest in this composer, whose music languished in libraries and churches until comparatively recently.

Review by James Manheim, Allmusic.com
"


Manuel Blasco de Nebra at Allmusic
Manuel Blasco de Nebra at Wiki

Javier Perianes at Allmusic
Javier Perianes Website
Javier Perianes at Wiki

Tracklist:

Keyboard Sonatas, Op.1:

01. Sonata No.1 in C minor - I. Adagio (06:09)
02. Sonata No.1 in C minor - II. Allegro (04:18)

03. Sonata No.2 in B flat major - I. Adagio (05:54)
04. Sonata No.2 in B flat major - II. Allegro (03:27)

05. Sonata No.5 in F sharp minor - I. Adagio (05:36)
06. Sonata No.5 in F sharp minor - II. Presto (03:52)

Manuscript 2998 (Archives of Montserrat):

07. Sonata No.3 in D major - I. Adagio (06:19)
08. Sonata No.3 in D major - II. Allegro (02:10)

09. Sonata No.4 in C major - I. Adagio (05:54)
10. Sonata No.4 in C major - II. Allegro (02:30)

11. Sonata No.6 in E minor - I. Adagio (05:06)
12. Sonata No.6 in E minor - II. Allegro (02:08)

13. Pastorela No.2 in F major - I. Adagio (04:08)
14. Pastorela No.2 in F major - II. Pastorela (02:11)
15. Pastorela No.2 in F major - III. Minuet (01:06)

16. Pastorela No.6 in E minor - I. Adagio (05:37)
17. Pastorela No.6 in E minor - II. Pastorela (03:32)
18. Pastorela No.6 in E minor - III. Minuet (01:22)


Exact Audio Copy V1.0 beta 1 from 15. November 2010

EAC extraction logfile from 8. March 2012, 15:29

Manuel Blasco de Nebra / Piano Sonatas

Used drive : Optiarc DVD RW AD-7203A Adapter: 4 ID: 1

Read mode : Secure
Utilize accurate stream : Yes
Defeat audio cache : Yes
Make use of C2 pointers : No

Read offset correction

: 48
Overread into Lead-In and Lead-Out : No
Fill up missing offset samples with silence : Yes
Delete leading and trailing silent blocks : No
Null samples used in CRC calculations : Yes
Used interface
: Native Win32 interface for Win NT & 2000

Used output format : User Defined Encoder
Selected bitrate : 128 kBit/s
Quality : High
Add ID3 tag : No
Command line compressor : C:\Program Files\FLAC\flac.exe
Additional command line options : -T "COMMENT=Ripped by GFox" -8 -V %s

TOC of the extracted CD Track | Start | Length | Start sector | End sector
--1 | 0:00.00 | 6:09.63 | 0 | 27737 2 | 6:09.63 | 4:18.19 | 27738 | 47106 3 | 10:28.07 | 5:54.01 | 47107 | 73657 4 | 16:22.08 | 3:27.19 | 73658 | 89201 5 | 19:49.27 | 5:36.24 | 89202 | 114425 6 | 25:25.51 | 3:52.44 | 114426 | 131869 7 | 29:18.20 | 6:19.53 | 131870 | 160347 8 | 35:37.73 | 2:10.16 | 160348 | 170113 9 | 37:48.14 | 5:54.10 | 170114 | 196673
10 | 43:42.24 | 2:30.09 | 196674 | 207932
11 | 46:12.33 | 5:06.00 | 207933 | 230882
12 | 51:18.33 | 2:08.27 | 230883 | 240509
13 | 53:26.60 | 4:08.09 | 240510 | 259118
14 | 57:34.69 | 2:11.17 | 259119 | 268960
15 | 59:46.11 | 1:06.07 | 268961 | 273917
16 | 60:52.18 | 5:37.68 | 273918 | 299260
17 | 66:30.11 | 3:32.63 | 299261 | 315223
18 | 70:02.74 | 1:22.21 | 315224 | 321394

Range status and errors

Selected range Filename D:\EAC\Manuel Blasco de Nebra - Piano Sonatas.wav Peak level 98.8 %
Extraction speed 0.0 X
Range quality 99.9 %
Test CRC A1683F96
Copy CRC A1683F96
Copy OK

No errors occurred


AccurateRip summary

Track 1 accurately ripped (confidence 2) [E66B09A6]
Track 2 accurately ripped (confidence 2) [F461A21B]
Track 3 accurately ripped (confidence 2) [AC70F240]
Track 4 accurately ripped (confidence 2) [8784D5EC]
Track 5 accurately ripped (confidence 2) EE2C986
Track 6 accurately ripped (confidence 2) [3310F3D7]
Track 7 accurately ripped (confidence 2) [2F4657CC]
Track 8 accurately ripped (confidence 2) [A5D67DA3]
Track 9 accurately ripped (confidence 2) [558B9560]
Track 10 accurately ripped (confidence 2) [1F83236E]
Track 11 accurately ripped (confidence 2) [77B16E0B]
Track 12 accurately ripped (confidence 2) [D86D3010]
Track 13 accurately ripped (confidence 2) [E2F913B6]
Track 14 accurately ripped (confidence 2) [8364688A]
Track 15 accurately ripped (confidence 2) [32E09FC9]
Track 16 accurately ripped (confidence 2) [17C674F9]
Track 17 accurately ripped (confidence 2) [25A32D55]
Track 18 accurately ripped (confidence 2) [74C30EA8]

All tracks accurately ripped

End of status report

==== Log checksum 3D6118376A3FC75FBB73DC1B434C81F9A39354863752739B8D450295F13691CA ====

foobar2000 1.3.8 / Dynamic Range Meter 1.1.1
log date: 2015-11-26 14:36:07

Analyzed: Manuel Blasco de Nebra / Piano Sonatas

DR Peak RMS Duration Track

DR13 -6.83 dB -25.84 dB 6:10 01-Keyboard Sonatas, Op.1 No.1 in C minor - I. Adagio
DR13 -2.30 dB -20.28 dB 4:18 02-Keyboard Sonatas, Op.1 No.1 in C minor - II. Allegro
DR13 -8.18 dB -27.10 dB 5:54 03-Keyboard Sonatas, Op.1 No.2 in B flat major - I. Adagio
DR13 -4.53 dB -21.35 dB 3:27 04-Keyboard Sonatas, Op.1 No.2 in B flat major - II. Allegro
DR14 -6.29 dB -26.55 dB 5:36 05-Keyboard Sonatas, Op.1 No.5 in F sharp minor - I. Adagio
DR14 -0.10 dB -20.15 dB 3:53 06-Keyboard Sonatas, Op.1 No.5 in F sharp minor - II. Presto
DR12 -8.01 dB -26.53 dB 6:20 07-Manuscript 2998 - Sonata No.3 in D major - I. Adagio
DR12 -5.61 dB -21.67 dB 2:10 08-Manuscript 2998 - Sonata No.3 in D major - II. Allegro
DR13 -9.26 dB -28.01 dB 5:54 09-Manuscript 2998 - Sonata No.4 in C major - I. Adagio
DR12 -6.13 dB -22.14 dB 2:30 10-Manuscript 2998 - Sonata No.4 in C major - II. Allegro
DR13 -5.65 dB -25.48 dB 5:06 11-Manuscript 2998 - Sonata No.6 in E minor - I. Adagio
DR13 -3.94 dB -21.64 dB 2:08 12-Manuscript 2998 - Sonata No.6 in E minor - II. Allegro
DR14 -6.63 dB -27.12 dB 4:08 13-Manuscript 2998 - Pastorela No.2 in F major - I. Adagio
DR13 -5.74 dB -23.47 dB 2:11 14-Manuscript 2998 - Pastorela No.2 in F major - II. Pastorela
DR15 -2.51 dB -25.08 dB 1:06 15-Manuscript 2998 - Pastorela No.2 in F major - III. Minuet
DR13 -7.42 dB -26.35 dB 5:38 16-Manuscript 2998 - Pastorela No.6 in E minor - I. Adagio
DR13 -4.52 dB -23.68 dB 3:33 17-Manuscript 2998 - Pastorela No.6 in E minor - II. Pastorela
DR12 -8.53 dB -26.80 dB 1:22 18-Manuscript 2998 - Pastorela No.6 in E minor - III. Minuet

Number of tracks: 18
Official DR value: DR13

Samplerate: 44100 Hz
Channels: 2
Bits per sample: 16
Bitrate: 422 kbps
Codec: FLAC

Javier Perianes - Manuel Blasco de Nebra: Piano Sonatas (2010)

All thanks to original releaser - GFox
Password: designol

DOWNLOAD LINKS
Buy Premium From My Links To Get Resumable Support & Max Speed & To Support Me


Links are Interchangeable - No Password - Single Extraction
Direct Download

Tags: Javier, Perianes, Manuel, Blasco, Sonatas

Javier Perianes - Manuel Blasco de Nebra: Piano Sonatas (2010) Download via Hotfile Rapidshare Fileserve Megaupload & FileSonic, Javier Perianes - Manuel Blasco de Nebra: Piano Sonatas (2010) free torrent downloads included crack, serial, keygen.Javier Perianes - Manuel Blasco de Nebra: Piano Sonatas (2010) Fast Download via Rapidshare Hotfile Fileserve Filesonic Megaupload, Javier Perianes - Manuel Blasco de Nebra: Piano Sonatas (2010) Torrents and Emule Download or anything related.
Leave a Comment
Your Name:
E-Mail:
Add Comments:

Enter Code: