The House Of Love - The Fontana Years (2004) 2CD

Download Now

The House Of Love - The Fontana Years (2004) 2CD

The House Of Love - The Fontana Years (2004) 2CD
EAC | FLAC | Tracks (Cue&Log) ~ 840 Mb (incl 5%) | Mp3 (CBR320) ~ 295 Mb (incl 5%) | Scans ~ 118 Mb
Genre: Alternative/Indie Rock, Noise Pop | Label: Spectrum | # 981 625-2 | Time: 02:03:08

"The Fontana Years is four discs -- 1990's The House of Love (the "butterfly" album) and A Spy in the House of Love, 1992's Babe Rainbow, and 1994's Audience With the Mind -- whittled down to two, with some spare B-sides sprinkled around. Quite possibly slapped together as a reaction to the reignited Rev-Ola label -- the source of 2003/2004-released compilations from several of the House of Love's old Creation label mates, such as the Jasmine Minks, the Weather Prophets, and Biff Bang Pow! -- its only saving grace is the single-disc price. Though the years covered here weren't the House of Love's best, they are deserving of better treatment, especially since some key album cuts ("Hannah," "Feel") are left out of the mix, and there isn't enough room for all of the B-sides. One thing that every prospective purchaser in the U.S. should consider: the four discs that this set draws from can be swooped up in one shot at your average used shop for roughly the same cost; you can find any one of them for a couple bucks apiece."

Tracklist:

CD1:

01. The Girl With The Loneliest Eyes (03:46)
02. Someone's Got To Love You (03:38)
03. Beatles And Stones (03:54)
04. Crush Me (03:48)
05. Yer Eyes (04:12)
06. Hollow (04:48)
07. You've Got To Feel (04:33)
08. Never (03:43)
09. Shine On (04:03)
10. I Don't Know Why I Love You (03:29)
11. You Don't Understand (03:45)
12. Audience With The Mind (03:30)
13. All Night Long (02:29)
14. Blind (03:43)

CD2:

01. Clothes (02:51)
02. Phone (02:50)
03. Last Edition Of Love (03:39)
04. D Song '89 (03:08)
05. Cut The Fool Down (03:06)
06. Love 10 (04:00)
07. Sweet Anatomy (04:04)
08. Safe (05:40)
09. Kiss The Fountain (02:35)
10. No Fire (03:54)
11. Marble (03:20)
12. Ray (03:35)
13. Skin 2 Phase 2 (03:51)
14. Third Generation Liquid Song (03:08)
15. Scratched Inside (02:59)
16. Baby Teen (04:35)
17. Soft As Fire (04:02)
18. Rosalyn (04:11)
19. Let's Talk About You (04:05)


Exact Audio Copy V1.0 beta 4 from 7. December 2014

EAC extraction logfile from 11. October 2015, 14:41

The House Of Love / The Fontana Years (CD1)

Used drive : TSSTcorpCDDVDW SH-224DB Adapter: 1 ID: 0

Read mode : Secure
Utilize accurate stream : Yes
Defeat audio cache : Yes
Make use of C2 pointers : No

Read offset correction

: 6
Overread into Lead-In and Lead-Out : No
Fill up missing offset samples with silence : Yes
Delete leading and trailing silent blocks : No
Null samples used in CRC calculations : Yes
Used interface
: Native Win32 interface for Win NT & 2000
Gap handling
: Appended to previous track

Used output format : User Defined Encoder
Selected bitrate : 896 kBit/s
Quality : High
Add ID3 tag : No
Command line compressor : C:\Program Files\Exact Audio Copy\Flac\flac.exe
Additional command line options : -6 -V -T "ARTIST=%artist%" -T "TITLE=%title%" -T "ALBUM=%albumtitle%" -T "DATE=%year%" -T "TRACKNUMBER=%tracknr%" -T "GENRE=%genre%" -T "COMMENT=%comment%" %source% -o %dest%

TOC of the extracted CD Track | Start | Length | Start sector | End sector
--1 | 0:00.00 | 3:46.06 | 0 | 16955 2 | 3:46.06 | 3:38.26 | 16956 | 33331 3 | 7:24.32 | 3:54.03 | 33332 | 50884 4 | 11:18.35 | 3:48.31 | 50885 | 68015 5 | 15:06.66 | 4:12.22 | 68016 | 86937 6 | 19:19.13 | 4:48.63 | 86938 | 108600 7 | 24:08.01 | 4:33.74 | 108601 | 129149 8 | 28:42.00 | 3:43.70 | 129150 | 145944 9 | 32:25.70 | 4:03.34 | 145945 | 164203
10 | 36:29.29 | 3:29.62 | 164204 | 179940
11 | 39:59.16 | 3:45.58 | 179941 | 196873
12 | 43:44.74 | 3:30.20 | 196874 | 212643
13 | 47:15.19 | 2:29.32 | 212644 | 223850
14 | 49:44.51 | 3:43.34 | 223851 | 240609

Track 1 Filename C:\New Folder\01 - The Girl With The Loneliest Eyes.wav Pre-gap length 0:00:02.00 Peak level 92.8 %
Extraction speed 1.5 X
Track quality 99.9 %
Test CRC 7B21B660
Copy CRC 7B21B660
Accurately ripped (confidence 12) [E2E459D8] (AR v2)
Copy OK

Track 2 Filename C:\New Folder\02 - Someone's Got To Love You.wav Peak level 98.7 %
Extraction speed 1.8 X
Track quality 100.0 %
Test CRC A79E64DA
Copy CRC A79E64DA
Accurately ripped (confidence 12) [7FAF59E5] (AR v2)
Copy OK

Track 3 Filename C:\New Folder\03 - Beatles And Stones.wav Peak level 90.7 %
Extraction speed 1.7 X
Track quality 99.9 %
Test CRC B7FCCBE8
Copy CRC B7FCCBE8
Accurately ripped (confidence 12) [DAD499FF] (AR v2)
Copy OK

Track 4 Filename C:\New Folder\04 - Crush Me.wav Peak level 90.8 %
Extraction speed 1.8 X
Track quality 99.9 %
Test CRC 4EF83813
Copy CRC 4EF83813
Accurately ripped (confidence 12) [8E96B956] (AR v2)
Copy OK

Track 5 Filename C:\New Folder\05 - Yer Eyes.wav Peak level 93.4 %
Extraction speed 2.0 X
Track quality 99.9 %
Test CRC 95F90FAC
Copy CRC 95F90FAC
Accurately ripped (confidence 12) [A631336F] (AR v2)
Copy OK

Track 6 Filename C:\New Folder\06 - Hollow.wav Peak level 92.4 %
Extraction speed 2.2 X
Track quality 99.9 %
Test CRC AF3C8FEA
Copy CRC AF3C8FEA
Accurately ripped (confidence 12) [26A9E210] (AR v2)
Copy OK

Track 7 Filename C:\New Folder\07 - You've Got To Feel.wav Peak level 94.3 %
Extraction speed 2.7 X
Track quality 100.0 %
Test CRC FE4259D5
Copy CRC FE4259D5
Accurately ripped (confidence 12) [03B366E4] (AR v2)
Copy OK

Track 8 Filename C:\New Folder\08 - Never.wav Peak level 92.1 %
Extraction speed 2.7 X
Track quality 100.0 %
Test CRC CA383194
Copy CRC CA383194
Accurately ripped (confidence 12) [FCD54F57] (AR v2)
Copy OK

Track 9 Filename C:\New Folder\09 - Shine On.wav Peak level 95.2 %
Extraction speed 2.9 X
Track quality 100.0 %
Test CRC C0544248
Copy CRC C0544248
Accurately ripped (confidence 12) [0B158200] (AR v2)
Copy OK

Track 10 Filename C:\New Folder\10 - I Don't Know Why I Love You.wav Peak level 94.0 %
Extraction speed 2.3 X
Track quality 99.9 %
Test CRC 34699CC2
Copy CRC 34699CC2
Accurately ripped (confidence 12) [9EDB0832] (AR v2)
Copy OK

Track 11 Filename C:\New Folder\11 - You Don't Understand.wav Peak level 90.8 %
Extraction speed 2.4 X
Track quality 99.9 %
Test CRC D8BDD951
Copy CRC D8BDD951
Accurately ripped (confidence 12) 6F94343 (AR v2)
Copy OK

Track 12 Filename C:\New Folder\12 - Audience With The Mind.wav Peak level 95.1 %
Extraction speed 3.1 X
Track quality 100.0 %
Test CRC F3AE33E0
Copy CRC F3AE33E0
Accurately ripped (confidence 12) [E4921342] (AR v2)
Copy OK

Track 13 Filename C:\New Folder\13 - All Night Long.wav Peak level 78.8 %
Extraction speed 3.0 X
Track quality 100.0 %
Test CRC C1194555
Copy CRC C1194555
Accurately ripped (confidence 12) [34169CB2] (AR v2)
Copy OK

Track 14 Filename C:\New Folder\14 - Blind.wav Peak level 93.1 %
Extraction speed 2.5 X
Track quality 99.9 %
Test CRC D55C8BE4
Copy CRC D55C8BE4
Accurately ripped (confidence 12) [00127E3F] (AR v2)
Copy OK

All tracks accurately ripped

No errors occurred

End of status report

- CUETools DB Plugin V2.1.4

[CTDB TOCID: gHXjdOP1kegXjna4WHK7Yzvtx_g-] found
Submit result: gHXjdOP1kegXjna4WHK7Yzvtx_g- has been confirmed
Track | CTDB Status
1 | (8/8) Accurately ripped
2 | (8/8) Accurately ripped
3 | (8/8) Accurately ripped
4 | (8/8) Accurately ripped
5 | (8/8) Accurately ripped
6 | (8/8) Accurately ripped
7 | (8/8) Accurately ripped
8 | (8/8) Accurately ripped
9 | (8/8) Accurately ripped
10 | (8/8) Accurately ripped
11 | (8/8) Accurately ripped
12 | (8/8) Accurately ripped
13 | (8/8) Accurately ripped
14 | (8/8) Accurately ripped

==== Log checksum 4FD1FCA9F47E32B96681B47AE02CEE031EB48ADD743AE8622CCE236F2683C447 ====

foobar2000 1.3.8 / Dynamic Range Meter 1.1.1
log date: 2015-11-29 18:40:09

Analyzed: The House Of Love / The Fontana Years (CD1)

DR Peak RMS Duration Track

DR8 -0.64 dB -10.12 dB 3:46 01-The Girl With The Loneliest Eyes
DR9 -0.11 dB -11.56 dB 3:38 02-Someone's Got To Love You
DR9 -0.84 dB -12.48 dB 3:54 03-Beatles And Stones
DR9 -0.84 dB -11.35 dB 3:48 04-Crush Me
DR7 -0.59 dB -9.91 dB 4:12 05-Yer Eyes
DR8 -0.69 dB -10.35 dB 4:49 06-Hollow
DR7 -0.50 dB -10.21 dB 4:34 07-You've Got To Feel
DR8 -0.71 dB -9.65 dB 3:44 08-Never
DR8 -0.42 dB -10.21 dB 4:03 09-Shine On
DR8 -0.53 dB -10.13 dB 3:30 10-I Don't Know Why I Love You
DR8 -0.83 dB -10.05 dB 3:46 11-You Don't Understand
DR9 -0.43 dB -12.49 dB 3:30 12-Audience With The Mind
DR11 -2.07 dB -16.07 dB 2:29 13-All Night Long
DR10 -0.62 dB -13.52 dB 3:43 14-Blind

Number of tracks: 14
Official DR value: DR9

Samplerate: 44100 Hz
Channels: 2
Bits per sample: 16
Bitrate: 874 kbps
Codec: FLAC

Exact Audio Copy V1.0 beta 4 from 7. December 2014

EAC extraction logfile from 11. October 2015, 18:59

The House Of Love / The Fontana Years (CD2)

Used drive : TSSTcorpCDDVDW SH-224DB Adapter: 1 ID: 0

Read mode : Secure
Utilize accurate stream : Yes
Defeat audio cache : Yes
Make use of C2 pointers : No

Read offset correction

: 6
Overread into Lead-In and Lead-Out : No
Fill up missing offset samples with silence : Yes
Delete leading and trailing silent blocks : No
Null samples used in CRC calculations : Yes
Used interface
: Native Win32 interface for Win NT & 2000
Gap handling
: Appended to previous track

Used output format : User Defined Encoder
Selected bitrate : 896 kBit/s
Quality : High
Add ID3 tag : No
Command line compressor : C:\Program Files\Exact Audio Copy\Flac\flac.exe
Additional command line options : -6 -V -T "ARTIST=%artist%" -T "TITLE=%title%" -T "ALBUM=%albumtitle%" -T "DATE=%year%" -T "TRACKNUMBER=%tracknr%" -T "GENRE=%genre%" -T "COMMENT=%comment%" %source% -o %dest%

TOC of the extracted CD Track | Start | Length | Start sector | End sector
--1 | 0:00.07 | 2:51.00 | 7 | 12831 2 | 2:51.07 | 2:50.00 | 12832 | 25581 3 | 5:41.07 | 3:39.11 | 25582 | 42017 4 | 9:20.18 | 3:08.66 | 42018 | 56183 5 | 12:29.09 | 3:06.01 | 56184 | 70134 6 | 15:35.10 | 4:00.63 | 70135 | 88197 7 | 19:35.73 | 4:04.41 | 88198 | 106538 8 | 23:40.39 | 5:40.20 | 106539 | 132058 9 | 29:20.59 | 2:35.05 | 132059 | 143688
10 | 31:55.64 | 3:54.28 | 143689 | 161266
11 | 35:50.17 | 3:20.44 | 161267 | 176310
12 | 39:10.61 | 3:35.13 | 176311 | 192448
13 | 42:45.74 | 3:51.18 | 192449 | 209791
14 | 46:37.17 | 3:08.54 | 209792 | 223945
15 | 49:45.71 | 2:59.23 | 223946 | 237393
16 | 52:45.19 | 4:35.54 | 237394 | 258072
17 | 57:20.73 | 4:02.08 | 258073 | 276230
18 | 61:23.06 | 4:11.08 | 276231 | 295063
19 | 65:34.14 | 4:05.33 | 295064 | 313471

Track 1 Filename C:\New Folder\01 - Clothes.wav Pre-gap length 0:00:02.07 Peak level 84.4 %
Extraction speed 1.5 X
Track quality 99.9 %
Test CRC E18C13D1
Copy CRC E18C13D1
Accurately ripped (confidence 9) [538B7411] (AR v2)
Copy OK

Track 2 Filename C:\New Folder\02 - Phone.wav Peak level 71.1 %
Extraction speed 1.6 X
Track quality 99.9 %
Test CRC DF73BBB0
Copy CRC DF73BBB0
Accurately ripped (confidence 9) [F396C8CD] (AR v2)
Copy OK

Track 3 Filename C:\New Folder\03 - Last Edition Of Love.wav Peak level 94.4 %
Extraction speed 2.0 X
Track quality 100.0 %
Test CRC 1423017C
Copy CRC 1423017C
Accurately ripped (confidence 9) [3952F1A0] (AR v2)
Copy OK

Track 4 Filename C:\New Folder\04 - D Song '89.wav Peak level 97.3 %
Extraction speed 1.7 X
Track quality 99.9 %
Test CRC B60B38E5
Copy CRC B60B38E5
Accurately ripped (confidence 9) 76D13B5 (AR v2)
Copy OK

Track 5 Filename C:\New Folder\05 - Cut The Fool Down.wav Peak level 99.2 %
Extraction speed 2.0 X
Track quality 100.0 %
Test CRC BE7910AF
Copy CRC BE7910AF
Accurately ripped (confidence 9) [9DC0902E] (AR v2)
Copy OK

Track 6 Filename C:\New Folder\06 - Love 10.wav Peak level 98.9 %
Extraction speed 2.1 X
Track quality 100.0 %
Test CRC 79B1BA9A
Copy CRC 79B1BA9A
Accurately ripped (confidence 9) [8D98397B] (AR v2)
Copy OK

Track 7 Filename C:\New Folder\07 - Sweet Anatomy.wav Peak level 87.6 %
Extraction speed 2.1 X
Track quality 100.0 %
Test CRC 392E3AB8
Copy CRC 392E3AB8
Accurately ripped (confidence 9) [06329B7D] (AR v2)
Copy OK

Track 8 Filename C:\New Folder\08 - Safe.wav Peak level 95.5 %
Extraction speed 1.9 X
Track quality 99.9 %
Test CRC EC1917BA
Copy CRC EC1917BA
Accurately ripped (confidence 9) [088DE057] (AR v2)
Copy OK

Track 9 Filename C:\New Folder\09 - Kiss The Fountain.wav Peak level 96.0 %
Extraction speed 1.9 X
Track quality 100.0 %
Test CRC 8F48B462
Copy CRC 8F48B462
Accurately ripped (confidence 9) [35ABAF9E] (AR v2)
Copy OK

Track 10 Filename C:\New Folder\10 - No Fire.wav Peak level 91.7 %
Extraction speed 1.8 X
Track quality 99.9 %
Test CRC B5F091EE
Copy CRC B5F091EE
Accurately ripped (confidence 9) [E53724CC] (AR v2)
Copy OK

Track 11 Filename C:\New Folder\11 - Marble.wav Peak level 96.9 %
Extraction speed 2.0 X
Track quality 100.0 %
Test CRC 8955080A
Copy CRC 8955080A
Accurately ripped (confidence 9) [FC677373] (AR v2)
Copy OK

Track 12 Filename C:\New Folder\12 - Ray.wav Peak level 95.9 %
Extraction speed 2.0 X
Track quality 100.0 %
Test CRC 9B0069D9
Copy CRC 9B0069D9
Accurately ripped (confidence 9) [ACE56AB7] (AR v2)
Copy OK

Track 13 Filename C:\New Folder\13 - Skin 2 Phase 2.wav Peak level 87.0 %
Extraction speed 2.0 X
Track quality 100.0 %
Test CRC 55134384
Copy CRC 55134384
Accurately ripped (confidence 9) [0478E759] (AR v2)
Copy OK

Track 14 Filename C:\New Folder\14 - Third Generation Liquid Song.wav Peak level 93.8 %
Extraction speed 2.0 X
Track quality 100.0 %
Test CRC 8A238513
Copy CRC 8A238513
Accurately ripped (confidence 9) AA20BFD (AR v2)
Copy OK

Track 15 Filename C:\New Folder\15 - Scratched Inside.wav Peak level 98.5 %
Extraction speed 2.0 X
Track quality 100.0 %
Test CRC 4FED97D4
Copy CRC 4FED97D4
Accurately ripped (confidence 9) [F1FB763B] (AR v2)
Copy OK

Track 16 Filename C:\New Folder\16 - Baby Teen.wav Peak level 93.6 %
Extraction speed 2.1 X
Track quality 100.0 %
Test CRC 29C1B72C
Copy CRC 29C1B72C
Accurately ripped (confidence 9) [65EDE3D3] (AR v2)
Copy OK

Track 17 Filename C:\New Folder\17 - Soft As Fire.wav Peak level 78.7 %
Extraction speed 2.1 X
Track quality 100.0 %
Test CRC 67D54AF9
Copy CRC 67D54AF9
Accurately ripped (confidence 9) [5610FA94] (AR v2)
Copy OK

Track 18 Filename C:\New Folder\18 - Rosalyn.wav Peak level 90.7 %
Extraction speed 2.1 X
Track quality 100.0 %
Test CRC 6EC478F5
Copy CRC 6EC478F5
Accurately ripped (confidence 9) [F0F5AB2D] (AR v2)
Copy OK

Track 19 Filename C:\New Folder\19 - Let's Talk About You.wav Peak level 85.1 %
Extraction speed 2.1 X
Track quality 100.0 %
Test CRC A9062CEA
Copy CRC A9062CEA
Accurately ripped (confidence 9) 9CC2697 (AR v2)
Copy OK

All tracks accurately ripped

No errors occurred

End of status report

- CUETools DB Plugin V2.1.4

[CTDB TOCID: bO4SUrLP82NfLjSbBsR471aMxr8-] found
Submit result: bO4SUrLP82NfLjSbBsR471aMxr8- has been confirmed
Track | CTDB Status
1 | (2/2) Accurately ripped
2 | (2/2) Accurately ripped
3 | (2/2) Accurately ripped
4 | (2/2) Accurately ripped
5 | (2/2) Accurately ripped
6 | (2/2) Accurately ripped
7 | (2/2) Accurately ripped
8 | (2/2) Accurately ripped
9 | (2/2) Accurately ripped
10 | (2/2) Accurately ripped
11 | (2/2) Accurately ripped
12 | (2/2) Accurately ripped
13 | (2/2) Accurately ripped
14 | (2/2) Accurately ripped
15 | (2/2) Accurately ripped
16 | (2/2) Accurately ripped
17 | (2/2) Accurately ripped
18 | (2/2) Accurately ripped
19 | (2/2) Accurately ripped

==== Log checksum 83A9EE6B85A39BBE6BFAC774BC94023F58A849EEF4693657EA3595C27C83CC49 ====

foobar2000 1.3.8 / Dynamic Range Meter 1.1.1
log date: 2015-11-29 18:41:21

Analyzed: The House Of Love / The Fontana Years (CD2)

DR Peak RMS Duration Track

DR12 -1.47 dB -16.47 dB 2:51 01-Clothes
DR11 -2.96 dB -17.06 dB 2:50 02-Phone
DR12 -0.50 dB -15.80 dB 3:39 03-Last Edition Of Love
DR11 -0.23 dB -14.90 dB 3:09 04-D Song '89
DR10 -0.07 dB -11.77 dB 3:06 05-Cut The Fool Down
DR12 -0.10 dB -14.50 dB 4:01 06-Love 10
DR12 -1.15 dB -15.16 dB 4:05 07-Sweet Anatomy
DR10 -0.40 dB -12.18 dB 5:40 08-Safe
DR11 -0.35 dB -12.91 dB 2:35 09-Kiss The Fountain
DR13 -0.75 dB -16.41 dB 3:54 10-No Fire
DR11 -0.27 dB -13.65 dB 3:21 11-Marble
DR10 -0.36 dB -12.37 dB 3:35 12-Ray
DR12 -1.20 dB -14.59 dB 3:51 13-Skin 2 Phase 2
DR11 -0.55 dB -12.61 dB 3:09 14-Third Generation Liquid Song
DR10 -0.13 dB -11.67 dB 2:59 15-Scratched Inside
DR12 -0.57 dB -15.20 dB 4:36 16-Baby Teen
DR11 -2.08 dB -16.44 dB 4:02 17-Soft As Fire
DR10 -0.85 dB -14.47 dB 4:11 18-Rosalyn
DR9 -1.39 dB -12.71 dB 4:05 19-Let's Talk About You

Number of tracks: 19
Official DR value: DR11

Samplerate: 44100 Hz
Channels: 2
Bits per sample: 16
Bitrate: 876 kbps
Codec: FLAC

The House Of Love - The Fontana Years (2004) 2CD

The House Of Love - The Fontana Years (2004) 2CD

All thanks to original releaser - alekow
Password: designol

DOWNLOAD LINKS
Buy Premium From My Links To Get Resumable Support & Max Speed & To Support Me

Uploaded.net:
http://uploaded.net/file/pzzpo9p8/6gn5b.Hse0fLveFntna.CD1.flac.rar
http://uploaded.net/file/do87eta9/6gn5b.Hse0fLveFntna.CD1.mp3.rar
http://uploaded.net/file/cm6cbnl4/6gn5b.Hse0fLveFntna.CD2.flac.rar
http://uploaded.net/file/8isvq66k/6gn5b.Hse0fLveFntna.CD2.mp3.rar
http://uploaded.net/file/0t8f7ell/6gn5b.Hse0fLveFntna.scans.rar

Rapidgator.net:
http://rapidgator.net/file/aaf8c4738cd07d25ef94ca68218891b8/6gn5b.Hse0fLveFntna.CD1.flac.rar.html
http://rapidgator.net/file/e814b8713ef97aa7f90ba6ed6ca03aa1/6gn5b.Hse0fLveFntna.CD1.mp3.rar.html
http://rapidgator.net/file/36a853217f414af3334fb765bca62482/6gn5b.Hse0fLveFntna.CD2.flac.rar.html
http://rapidgator.net/file/bf27429d87e85241b1cdd5148f142621/6gn5b.Hse0fLveFntna.CD2.mp3.rar.html
http://rapidgator.net/file/42dd484e62c64e252903cd16f6dad0ea/6gn5b.Hse0fLveFntna.scans.rar.html

UploadRocket.net:
http://uploadrocket.net/vy6b3szs29t1/6gn5b.Hse0fLveFntna.CD1.flac.rar.html
http://uploadrocket.net/lnj8nrgjygva/6gn5b.Hse0fLveFntna.CD1.mp3.rar.html
http://uploadrocket.net/2pbgxamycepm/6gn5b.Hse0fLveFntna.CD2.flac.rar.html
http://uploadrocket.net/c86nznf4iro3/6gn5b.Hse0fLveFntna.CD2.mp3.rar.html
http://uploadrocket.net/8p3ytwo1b0lx/6gn5b.Hse0fLveFntna.scans.rar.html

OBoom.com:
https://www.oboom.com/ZEMSHEY3/6gn5b.Hse0fLveFntna.CD1.flac.rar
https://www.oboom.com/GER57T66/6gn5b.Hse0fLveFntna.CD1.mp3.rar
https://www.oboom.com/5ED9UZI2/6gn5b.Hse0fLveFntna.CD2.flac.rar
https://www.oboom.com/NI72ETY4/6gn5b.Hse0fLveFntna.CD2.mp3.rar
https://www.oboom.com/W7WFQRMH/6gn5b.Hse0fLveFntna.scans.rar

Links are Interchangeable - No Password - Single Extraction
Direct Download

Tags: Fontana

The House Of Love - The Fontana Years (2004) 2CD Download via Hotfile Rapidshare Fileserve Megaupload & FileSonic, The House Of Love - The Fontana Years (2004) 2CD free torrent downloads included crack, serial, keygen.The House Of Love - The Fontana Years (2004) 2CD Fast Download via Rapidshare Hotfile Fileserve Filesonic Megaupload, The House Of Love - The Fontana Years (2004) 2CD Torrents and Emule Download or anything related.
Leave a Comment
Your Name:
E-Mail:
Add Comments:

Enter Code: