Kevin Wood - 2 Studio Albums (2002-2006)

Download Now

Kevin Wood - 2 Studio Albums (2002-2006)

Kevin Wood - 2 Studio Albums (2002-2006)
EAC Rip | FLAC (tracks+.cue+log) - 633 MB | MP3 CBR 320 kbps (LAME 3.93) - 239 MB | Covers - 219 MB
Genre: New Age | RAR 3% Rec. | Label: Orange Music

"Harmonic Oasis (2002). In February 2002 Kevin Wood released his debut CD, "Scenic Listening". Each song on this album takes you to a different setting, such as a cathedral, a mountainside, a waterfall, etc. "Scenic Listening" earned the #4 top-album on the NAV Airwaves Chart, and is now licensed with Orange Music under the revised title name, "Harmonic Oasis". "Harmonic Oasis" stimulates the senses with artfully woven tribal grooves, Gregorian chants, and beautiful melodies. Rich string harmonies and fluid piano conjure vivid images and lush mindscapes..."

Kevin Wood - 2 Studio Albums (2002-2006)

Kevin Wood - Harmonic Oasis (2002) [Reissue 2005]
EAC Rip | FLAC (tracks+.cue+log) - 338 MB | MP3 CBR 320 kbps (LAME 3.93) - 116 MB | Covers - 94 MB
Genre: New Age | RAR 3% Rec. | Label: Orange Music (OM 79560)

Tracklist:
01. Tribal Hymn
02. Cathedral Echo
03. Mountainside Psalm
04. Continental Chant
05. Cadent Waterfalls
06. Forest Groove
07. Dancing Woodwinds
08. Harmonic Oasis
09. Bluebonnet Sonata
10. Tribal Hymn II

Total time: 49:20

Exact Audio Copy V1.0 beta 3 from 29. August 2011

EAC extraction logfile from 22. August 2013, 21:08

Kevin Wood / Harmonic Oasis

Used drive : PLEXTOR DVDR PX-760A Adapter: 0 ID: 1

Read mode : Secure
Utilize accurate stream : Yes
Defeat audio cache : Yes
Make use of C2 pointers : No

Read offset correction

: 30
Overread into Lead-In and Lead-Out : Yes
Fill up missing offset samples with silence : Yes
Delete leading and trailing silent blocks : No
Null samples used in CRC calculations : Yes
Used interface
: Installed external ASPI interface
Gap handling
: Appended to previous track

Used output format : User Defined Encoder
Selected bitrate : 1024 kBit/s
Quality : High
Add ID3 tag : No
Command line compressor : C:\Program Files (x86)\Exact Audio Copy\Flac\flac.exe
Additional command line options : -8 -V -T "ARTIST=%artist%" -T "TITLE=%title%" -T "ALBUM=%albumtitle%" -T "DATE=%year%" -T "TRACKNUMBER=%tracknr%" -T "GENRE=%genre%" -T "COMMENT=ripped by DrStandBy" %source%

TOC of the extracted CD Track | Start | Length | Start sector | End sector
--1 | 0:00.00 | 5:34.62 | 0 | 25111 2 | 5:34.62 | 5:18.19 | 25112 | 48980 3 | 10:53.06 | 5:02.44 | 48981 | 71674 4 | 15:55.50 | 4:58.59 | 71675 | 94083 5 | 20:54.34 | 4:06.06 | 94084 | 112539 6 | 25:00.40 | 4:18.18 | 112540 | 131907 7 | 29:18.58 | 5:17.74 | 131908 | 155756 8 | 34:36.57 | 5:31.18 | 155757 | 180599 9 | 40:08.00 | 3:37.72 | 180600 | 196946
10 | 43:45.72 | 5:34.07 | 196947 | 222003

Track 1 Filename Z:\Lossless\New Age\Kevin Wood\2002 - Kevin Wood - Harmonic Oasis (Orange Music #OM 79560)\01. Kevin Wood - Tribal Hymn.wav Pre-gap length 0:00:02.00 Peak level 100.0 %
Extraction speed 2.2 X
Track quality 100.0 %
Test CRC A953DDFA
Copy CRC A953DDFA
Accurately ripped (confidence 2) [C6969406] (AR v1)
Copy OK

Track 2 Filename Z:\Lossless\New Age\Kevin Wood\2002 - Kevin Wood - Harmonic Oasis (Orange Music #OM 79560)\02. Kevin Wood - Cathedral Echo.wav Pre-gap length 0:00:02.35 Peak level 99.9 %
Extraction speed 2.2 X
Track quality 100.0 %
Test CRC 8E7969F1
Copy CRC 8E7969F1
Accurately ripped (confidence 2) [6572AB95] (AR v1)
Copy OK

Track 3 Filename Z:\Lossless\New Age\Kevin Wood\2002 - Kevin Wood - Harmonic Oasis (Orange Music #OM 79560)\03. Kevin Wood - Mountainside Psalm.wav Pre-gap length 0:00:02.35 Peak level 100.0 %
Extraction speed 2.2 X
Track quality 100.0 %
Test CRC 11D5BA41
Copy CRC 11D5BA41
Accurately ripped (confidence 2) [9CA8176F] (AR v1)
Copy OK

Track 4 Filename Z:\Lossless\New Age\Kevin Wood\2002 - Kevin Wood - Harmonic Oasis (Orange Music #OM 79560)\04. Kevin Wood - Continental Chant.wav Pre-gap length 0:00:02.35 Peak level 99.9 %
Extraction speed 1.6 X
Track quality 99.9 %
Test CRC 961AAB56
Copy CRC 961AAB56
Accurately ripped (confidence 2) AFF7604 (AR v1)
Copy OK

Track 5 Filename Z:\Lossless\New Age\Kevin Wood\2002 - Kevin Wood - Harmonic Oasis (Orange Music #OM 79560)\05. Kevin Wood - Cadent Waterfalls.wav Pre-gap length 0:00:02.35 Peak level 99.9 %
Extraction speed 2.1 X
Track quality 100.0 %
Test CRC F24F9B54
Copy CRC F24F9B54
Accurately ripped (confidence 2) [4290918C] (AR v1)
Copy OK

Track 6 Filename Z:\Lossless\New Age\Kevin Wood\2002 - Kevin Wood - Harmonic Oasis (Orange Music #OM 79560)\06. Kevin Wood - Forest Groove.wav Pre-gap length 0:00:02.35 Peak level 100.0 %
Extraction speed 2.2 X
Track quality 100.0 %
Test CRC 7BD0C03B
Copy CRC 7BD0C03B
Accurately ripped (confidence 2) [422D4ACB] (AR v1)
Copy OK

Track 7 Filename Z:\Lossless\New Age\Kevin Wood\2002 - Kevin Wood - Harmonic Oasis (Orange Music #OM 79560)\07. Kevin Wood - Dancing Woodwinds.wav Pre-gap length 0:00:02.35 Peak level 99.9 %
Extraction speed 2.2 X
Track quality 100.0 %
Test CRC 05A03AFF
Copy CRC 05A03AFF
Accurately ripped (confidence 2) [95CDEAC9] (AR v1)
Copy OK

Track 8 Filename Z:\Lossless\New Age\Kevin Wood\2002 - Kevin Wood - Harmonic Oasis (Orange Music #OM 79560)\08. Kevin Wood - Harmonic Oasis.wav Pre-gap length 0:00:02.35 Peak level 99.9 %
Extraction speed 2.2 X
Track quality 100.0 %
Test CRC D44428AC
Copy CRC D44428AC
Accurately ripped (confidence 2) [1E4B5FE6] (AR v1)
Copy OK

Track 9 Filename Z:\Lossless\New Age\Kevin Wood\2002 - Kevin Wood - Harmonic Oasis (Orange Music #OM 79560)\09. Kevin Wood - Bluebonnet Sonata.wav Pre-gap length 0:00:02.35 Peak level 99.9 %
Extraction speed 2.1 X
Track quality 100.0 %
Test CRC A2F44511
Copy CRC A2F44511
Accurately ripped (confidence 2) [4AD38E94] (AR v1)
Copy OK

Track 10 Filename Z:\Lossless\New Age\Kevin Wood\2002 - Kevin Wood - Harmonic Oasis (Orange Music #OM 79560)\10. Kevin Wood - Tribal Hymn II.wav Pre-gap length 0:00:02.35 Peak level 100.0 %
Extraction speed 2.4 X
Track quality 100.0 %
Test CRC C0D75429
Copy CRC C0D75429
Accurately ripped (confidence 2) [44EDED8F] (AR v1)
Copy OK

All tracks accurately ripped

No errors occurred

End of status report

- CUETools DB Plugin V2.1.4

[CTDB TOCID: fbUVnH9cgNrpGNjk3Ec7CPIyfWE-] disk not present in database
Submit result: fbUVnH9cgNrpGNjk3Ec7CPIyfWE- has been uploaded

==== Log checksum 286598CD04D8A01BCE788F6D131CC1E1486473CE40E10443E630E88403974AE2 ====

[CUETools log; Date: 25.11.2015 17:10:07; Version: 2.1.4]
[CTDB TOCID: fbUVnH9cgNrpGNjk3Ec7CPIyfWE-] found.
Track | CTDB Status
1 | (1/1) Accurately ripped
2 | (1/1) Accurately ripped
3 | (1/1) Accurately ripped
4 | (1/1) Accurately ripped
5 | (1/1) Accurately ripped
6 | (1/1) Accurately ripped
7 | (1/1) Accurately ripped
8 | (1/1) Accurately ripped
9 | (1/1) Accurately ripped
10 | (1/1) Accurately ripped
[AccurateRip ID: 0012ea38-0096154e-800b900a] found.
Track [ CRC | V2 ] Status
01 [c6969406|26c70a82] (2+2/4) Accurately ripped
02 [6572ab95|73b7e416] (2+2/4) Accurately ripped
03 [9ca8176f|b7492daa] (2+2/4) Accurately ripped
04 aff7604|5630b8a2 (2+2/4) Accurately ripped
05 [4290918c|d30a1bdd] (2+2/4) Accurately ripped
06 [422d4acb|ce914914] (2+2/4) Accurately ripped
07 [95cdeac9|96cecbdf] (2+2/4) Accurately ripped
08 [1e4b5fe6|d6726621] (2+2/4) Accurately ripped
09 [4ad38e94|141819c4] (2+2/4) Accurately ripped
10 [44eded8f|ff2a56d7] (2+2/4) Accurately ripped

Track Peak [ CRC32 ] [W/O NULL] [ LOG ]
-- 100,0 [5381A5C2] [E26F45CA]
01 100,0 [A953DDFA] [6F740137] CRC32
02 99,9 [8E7969F1] [3D897D6B] CRC32
03 100,0 [11D5BA41] [D6352BC0] CRC32
04 99,9 [961AAB56] [C15F1D88] CRC32
05 99,9 [F24F9B54] [CCE68886] CRC32
06 100,0 [7BD0C03B] [FAEC7BD3] CRC32
07 99,9 [05A03AFF] [760C9745] CRC32
08 99,9 [D44428AC] [3B2943F3] CRC32
09 99,9 [A2F44511] [EF92B195] CRC32
10 100,0 [C0D75429] [FCF252CB] CRC32

Kevin Wood - 2 Studio Albums (2002-2006)

Kevin Wood - Sacred (2006)
EAC Rip | FLAC (tracks+.cue+log) - 295 MB | MP3 CBR 320 kbps (LAME 3.93) - 123 MB | Covers - 125 MB
Genre: New Age | RAR 3% Rec. | Label: Orange Music (OM 79672)

Tracklist:
01. The Ritual
02. Exaltation
03. Solemn Vow
04. Glory Beckons
05. In Search of Kindred Spirits
06. Twilight of Hope
07. Secret Prayer
08. Peace Within
09. The Ritual (Ambient Mix)
10. Cathedral Echo (Bonus Track)

Total time: 52:31

Exact Audio Copy V1.0 beta 3 from 29. August 2011

EAC extraction logfile from 9. November 2015, 22:05

Kevin Wood / Sacred

Used drive : ASUS DRW-24F1ST a Adapter: 2 ID: 0

Read mode : Secure
Utilize accurate stream : Yes
Defeat audio cache : Yes
Make use of C2 pointers : No

Read offset correction

: 6
Overread into Lead-In and Lead-Out : No
Fill up missing offset samples with silence : Yes
Delete leading and trailing silent blocks : No
Null samples used in CRC calculations : Yes
Used interface
: Native Win32 interface for Win NT & 2000
Gap handling
: Appended to previous track

Used output format : User Defined Encoder
Selected bitrate : 1024 kBit/s
Quality : High
Add ID3 tag : No
Command line compressor : C:\Program Files (x86)\Exact Audio Copy\Flac\flac.exe
Additional command line options : -8 -V -T "COMMENT=ripped by DrStandBy special for new-team.org" -T "ARTIST=%artist%" -T "TITLE=%title%" -T "ALBUM=%albumtitle%" -T "DATE=%year%" -T "TRACKNUMBER=%tracknr%" -T "GENRE=%genre%" %source%

TOC of the extracted CD Track | Start | Length | Start sector | End sector
--1 | 0:00.00 | 5:44.31 | 0 | 25830 2 | 5:44.31 | 5:16.63 | 25831 | 49593 3 | 11:01.19 | 3:48.48 | 49594 | 66741 4 | 14:49.67 | 5:43.62 | 66742 | 92528 5 | 20:33.54 | 4:31.08 | 92529 | 112861 6 | 25:04.62 | 5:30.70 | 112862 | 137681 7 | 30:35.57 | 5:48.63 | 137682 | 163844 8 | 36:24.45 | 5:51.39 | 163845 | 190208 9 | 42:16.09 | 4:55.69 | 190209 | 212402
10 | 47:12.03 | 5:18.71 | 212403 | 236323

Track 1 Filename I:\For new-team\2006 - Kevin Wood - Sacred (OM79672)\01. Kevin Wood - The Ritual.wav Pre-gap length 0:00:02.00 Peak level 99.0 %
Extraction speed 1.9 X
Track quality 100.0 %
Test CRC B749B738
Copy CRC B749B738
Cannot be verified as accurate (confidence 2) [E2C5927A], AccurateRip returned [5616D999] (AR v2)
Copy OK

Track 2 Filename I:\For new-team\2006 - Kevin Wood - Sacred (OM79672)\02. Kevin Wood - Exaltation.wav Pre-gap length 0:00:03.00 Peak level 98.9 %
Extraction speed 2.2 X
Track quality 100.0 %
Test CRC D4ABB422
Copy CRC D4ABB422
Cannot be verified as accurate (confidence 2) [F7665432], AccurateRip returned [C0FCF0FB] (AR v2)
Copy OK

Track 3 Filename I:\For new-team\2006 - Kevin Wood - Sacred (OM79672)\03. Kevin Wood - Solemn Vow.wav Pre-gap length 0:00:04.00 Peak level 99.0 %
Extraction speed 2.3 X
Track quality 100.0 %
Test CRC D781CC30
Copy CRC D781CC30
Cannot be verified as accurate (confidence 2) [CB66A8ED], AccurateRip returned [C19D192F] (AR v2)
Copy OK

Track 4 Filename I:\For new-team\2006 - Kevin Wood - Sacred (OM79672)\04. Kevin Wood - Glory Beckons.wav Pre-gap length 0:00:03.00 Peak level 100.0 %
Extraction speed 2.6 X
Track quality 100.0 %
Test CRC DBBBA039
Copy CRC DBBBA039
Cannot be verified as accurate (confidence 2) [F54910E0], AccurateRip returned [46CBB854] (AR v2)
Copy OK

Track 5 Filename I:\For new-team\2006 - Kevin Wood - Sacred (OM79672)\05. Kevin Wood - In Search of Kindred Spirits.wav Pre-gap length 0:00:04.00 Peak level 99.8 %
Extraction speed 2.7 X
Track quality 100.0 %
Test CRC 46038770
Copy CRC 46038770
Cannot be verified as accurate (confidence 2) [43D68494], AccurateRip returned [88B5060C] (AR v2)
Copy OK

Track 6 Filename I:\For new-team\2006 - Kevin Wood - Sacred (OM79672)\06. Kevin Wood - Twilight of Hope.wav Pre-gap length 0:00:03.00 Peak level 100.0 %
Extraction speed 2.9 X
Track quality 100.0 %
Test CRC CABCAF0B
Copy CRC CABCAF0B
Cannot be verified as accurate (confidence 2) [38CC0742], AccurateRip returned [15291D55] (AR v2)
Copy OK

Track 7 Filename I:\For new-team\2006 - Kevin Wood - Sacred (OM79672)\07. Kevin Wood - Secret Prayer.wav Pre-gap length 0:00:03.00 Peak level 96.2 %
Extraction speed 3.1 X
Track quality 100.0 %
Test CRC 03C5244E
Copy CRC 03C5244E
Cannot be verified as accurate (confidence 2) [32A57D15], AccurateRip returned [F7D90A1B] (AR v2)
Copy OK

Track 8 Filename I:\For new-team\2006 - Kevin Wood - Sacred (OM79672)\08. Kevin Wood - Peace Within.wav Pre-gap length 0:00:02.00 Peak level 77.4 %
Extraction speed 3.3 X
Track quality 100.0 %
Test CRC F6759E9F
Copy CRC F6759E9F
Cannot be verified as accurate (confidence 2) [8417BAB1], AccurateRip returned [DDFDA8D3] (AR v2)
Copy OK

Track 9 Filename I:\For new-team\2006 - Kevin Wood - Sacred (OM79672)\09. Kevin Wood - The Ritual (Ambient Mix).wav Pre-gap length 0:00:03.00 Peak level 94.3 %
Extraction speed 3.4 X
Track quality 100.0 %
Test CRC 7BD4ADC5
Copy CRC 7BD4ADC5
Cannot be verified as accurate (confidence 2) [5D5364B5], AccurateRip returned [4722A0AB] (AR v2)
Copy OK

Track 10 Filename I:\For new-team\2006 - Kevin Wood - Sacred (OM79672)\10. Kevin Wood - Cathedral Echo (Bonus Track).wav Pre-gap length 0:00:04.00 Peak level 83.1 %
Extraction speed 3.6 X
Track quality 100.0 %
Test CRC C611F870
Copy CRC C611F870
Cannot be verified as accurate (confidence 2) [CED87627], AccurateRip returned [5B320F48] (AR v2)
Copy OK

No tracks could be verified as accurate
You may have a different pressing from the one(s) in the database

No errors occurred

End of status report

- CUETools DB Plugin V2.1.6

[CTDB TOCID: R.nTmaeKn2ahktcaSJnvEfVCxp0-] found
Submit result: R.nTmaeKn2ahktcaSJnvEfVCxp0- has been confirmed
Track | CTDB Status
1 | (1/1) Accurately ripped
2 | (1/1) Accurately ripped
3 | (1/1) Accurately ripped
4 | (1/1) Accurately ripped
5 | (1/1) Accurately ripped
6 | (1/1) Accurately ripped
7 | (1/1) Accurately ripped
8 | (1/1) Accurately ripped
9 | (1/1) Accurately ripped
10 | (1/1) Accurately ripped

==== Log checksum 37F9866759C43F7B78FB0BF60935A87AEDE7FFC70434F3A6AFB5775976FD3526 ====

[CUETools log; Date: 25.11.2015 17:10:33; Version: 2.1.4]
[CTDB TOCID: R.nTmaeKn2ahktcaSJnvEfVCxp0-] found.
Track | CTDB Status
1 | (2/2) Accurately ripped
2 | (2/2) Accurately ripped
3 | (2/2) Accurately ripped
4 | (2/2) Accurately ripped
5 | (2/2) Accurately ripped
6 | (2/2) Accurately ripped
7 | (2/2) Accurately ripped
8 | (2/2) Accurately ripped
9 | (2/2) Accurately ripped
10 | (2/2) Accurately ripped
[AccurateRip ID: 0013a755-009d6db7-8e0c4e0a] found.
Track [ CRC | V2 ] Status
01 [98917729|e2c5927a] (0+0/2) No match
02 [e0a47ff3|f7665432] (0+0/2) No match
03 [936460db|cb66a8ed] (0+0/2) No match
04 [0f228c58|f54910e0] (0+0/2) No match
05 [6082ced4|43d68494] (0+0/2) No match
06 [95da3b59|38cc0742] (0+0/2) No match
07 [22d1ac6b|32a57d15] (0+0/2) No match
08 [542cef23|8417bab1] (0+0/2) No match
09 [f1fe1aa7|5d5364b5] (0+0/2) No match
10 [98606c48|ced87627] (0+0/2) No match
Offsetted by 676:
01 [5616d999] (2/2) Accurately ripped
02 [c0fcf0fb] (2/2) Accurately ripped
03 [c19d192f] (2/2) Accurately ripped
04 [46cbb854] (2/2) Accurately ripped
05 [88b5060c] (2/2) Accurately ripped
06 [15291d55] (2/2) Accurately ripped
07 [f7d90a1b] (2/2) Accurately ripped
08 [ddfda8d3] (2/2) Accurately ripped
09 [4722a0ab] (2/2) Accurately ripped
10 [5b320f48] (2/2) Accurately ripped

Track Peak [ CRC32 ] [W/O NULL] [ LOG ]
-- 100,0 [26D29064] [C2773FE6]
01 99,0 749B738 [4576E4B7] CRC32
02 98,9 [D4ABB422] [80AA0F60] CRC32
03 99,0 [D781CC30] [66F08B96] CRC32
04 100,0 [DBBBA039] [68551141] CRC32
05 99,8 [46038770] [313AED2C] CRC32
06 100,0 [CABCAF0B] [3FCCDE6D] CRC32
07 96,2 [03C5244E] FAF9CEB CRC32
08 77,4 [F6759E9F] [581A0AE7] CRC32
09 94,3 [7BD4ADC5] [4DF1403D] CRC32
10 83,1 [C611F870] [05773635] CRC32


Thanks to DrStandBy
DOWNLOAD LINKS
Buy Premium From My Links To Get Resumable Support & Max Speed & To Support Me

Uploaded.net:
http://uploaded.net/file/eloyyo0y/n24dm.1KWHO.02.M.rar
http://uploaded.net/file/b9zr0h8g/n24dm.1KWHO.02.rar
http://uploaded.net/file/uour4mh6/n24dm.1KWHO.02.sc.rar
http://uploaded.net/file/m9vdow75/n24dm.2KWS.06.M.rar
http://uploaded.net/file/uc6geiff/n24dm.2KWS.06.rar
http://uploaded.net/file/w0aqcok3/n24dm.2KWS.06.sc.rar

Rapidgator.net:
http://rapidgator.net/file/fd939a0ae5e878eac8aa1eb5ce33c89a/n24dm.1KWHO.02.M.rar.html
http://rapidgator.net/file/152077e54635994b71dee24b797673ef/n24dm.1KWHO.02.rar.html
http://rapidgator.net/file/4cf051c355877b9f11ca76ffa8af79c3/n24dm.1KWHO.02.sc.rar.html
http://rapidgator.net/file/255eb71b5660cf605fe8f474ed4d3111/n24dm.2KWS.06.M.rar.html
http://rapidgator.net/file/42bc775ff9926302db9df65c248f2aeb/n24dm.2KWS.06.rar.html
http://rapidgator.net/file/df77b91a8475e92f13db1f5d20619d31/n24dm.2KWS.06.sc.rar.html

UploadRocket.net:
http://uploadrocket.net/tj7jn3h9z8vo/n24dm.1KWHO.02.M.rar.html
http://uploadrocket.net/cswykos6aia3/n24dm.1KWHO.02.rar.html
http://uploadrocket.net/iogl253mgwql/n24dm.1KWHO.02.sc.rar.html
http://uploadrocket.net/dt4ponhc8oz6/n24dm.2KWS.06.M.rar.html
http://uploadrocket.net/qsnhvo7y7wt9/n24dm.2KWS.06.rar.html
http://uploadrocket.net/jmiddbpw2lx0/n24dm.2KWS.06.sc.rar.html

OBoom.com:
https://www.oboom.com/JU3JTMNO/n24dm.1KWHO.02.M.rar
https://www.oboom.com/MEO7UC0M/n24dm.1KWHO.02.rar
https://www.oboom.com/3ORQH2CS/n24dm.1KWHO.02.sc.rar
https://www.oboom.com/AZFYON0C/n24dm.2KWS.06.M.rar
https://www.oboom.com/M2XIKSDK/n24dm.2KWS.06.rar
https://www.oboom.com/GAL5EMS3/n24dm.2KWS.06.sc.rar

Links are Interchangeable - No Password - Single Extraction
Direct Download

Tags: Studio, Albums

Kevin Wood - 2 Studio Albums (2002-2006) Download via Hotfile Rapidshare Fileserve Megaupload & FileSonic, Kevin Wood - 2 Studio Albums (2002-2006) free torrent downloads included crack, serial, keygen.Kevin Wood - 2 Studio Albums (2002-2006) Fast Download via Rapidshare Hotfile Fileserve Filesonic Megaupload, Kevin Wood - 2 Studio Albums (2002-2006) Torrents and Emule Download or anything related.
Leave a Comment
Your Name:
E-Mail:
Add Comments:

Enter Code: