Protest The Hero - Kezia (2005/2006)

Download Now

Protest The Hero - Kezia (2005/2006)

Protest The Hero - Kezia (2005/2006)
EAC Rip | FLAC (Img) + Cue + Log ~ 337 Mb | MP3 CBR320 ~ 106 Mb
Scans (JPG, 400 dpi) ~ 48 Mb | RAR 5% Recovery
Progressive Metal, Math Rock, Hardcore | Vagrant Records #VK430

"Protest the Hero is a Canadian progressive metal band from Whitby, Ontario. Originally named Happy Go Lucky, the band changed their name to Protest the Hero shortly before releasing their debut EP, Search for the Truth, in 2002. In 2005, the band released their first full-length album Kezia on the indie label Underground Operations. On January 23, 2006, the band signed with Vagrant Records for Kezia's American release on April 4, 2006..."

Protest The Hero - Kezia (2005/2006)

Official Website | Wiki | Discogs | All Music
***************

Protest The Hero - Kezia (2005/2006)

Track List:

01. No Stars Over Bethlehem [03:51]
02. Heretics & Killers [03:12]
03. Divinity Within [04:35]
04. Bury the Hatchet [03:27]
05. Nautical [03:00]
06. Blindfolds Aside [06:02]
07. She Who Mars the Skin of Gods [03:54]
08. Turn Soonest to the Sea [06:24]
09. The Divine Suicide of K. [05:13]
10. A Plateful of Our Dead [04:30]

Exact Audio Copy V1.0 beta 3 from 29. August 2011

EAC extraction logfile from 25. November 2015, 13:42

Protest the Hero / Kezia

Used drive : PIONEER BD-RW BDR-TD03 Adapter: 0 ID: 1

Read mode : Secure
Utilize accurate stream : Yes
Defeat audio cache : Yes
Make use of C2 pointers : No

Read offset correction

: 667
Overread into Lead-In and Lead-Out : No
Fill up missing offset samples with silence : Yes
Delete leading and trailing silent blocks : No
Null samples used in CRC calculations : Yes
Used interface
: Native Win32 interface for Win NT & 2000

Used output format : User Defined Encoder
Selected bitrate : 768 kBit/s
Quality : High
Add ID3 tag : No
Command line compressor : C:\Program Files (x86)\Exact Audio Copy\FLAC\FLAC.EXE
Additional command line options : -6 -V -T "ARTIST=%artist%" -T "TITLE=%title%" -T "ALBUM=%albumtitle%" -T "DATE=%year%" -T "TRACKNUMBER=%tracknr%" -T "GENRE=%genre%" -T "COMMENT=%comment%" -T "BAND=%albuminterpret%" -T "ALBUMARTIST=%albuminterpret%" -T "COMPOSER=%composer%" %haslyrics%--tag-from-file=LYRICS="%lyricsfile%"%haslyrics% -T "DISCNUMBER=%cdnumber%" -T "TOTALDISCS=%totalcds%" -T "TOTALTRACKS=%numtracks%" %hascover%--picture="%coverfile%"%hascover% %source% -o %dest%

TOC of the extracted CD Track | Start | Length | Start sector | End sector
--1 | 0:00.00 | 3:50.29 | 0 | 17278 2 | 3:50.29 | 3:11.45 | 17279 | 31648 3 | 7:01.74 | 4:34.37 | 31649 | 52235 4 | 11:36.36 | 3:26.03 | 52236 | 67688 5 | 15:02.39 | 2:59.56 | 67689 | 81169 6 | 18:02.20 | 6:01.17 | 81170 | 108261 7 | 24:03.37 | 3:53.71 | 108262 | 125807 8 | 27:57.33 | 6:23.58 | 125808 | 154590 9 | 34:21.16 | 5:12.33 | 154591 | 178023
10 | 39:33.49 | 4:29.58 | 178024 | 198256

Range status and errors

Selected range Filename C:\Users\Deris\Desktop\...\protest\Protest the Hero - Kezia.wav Peak level 98.9 %
Extraction speed 4.4 X
Range quality 100.0 %
Test CRC CB29BD41
Copy CRC CB29BD41
Copy OK

No errors occurred


AccurateRip summary

Track 1 accurately ripped (confidence 5) [D8983DE1] (AR v2)
Track 2 accurately ripped (confidence 5) [993A4E36] (AR v2)
Track 3 accurately ripped (confidence 5) [13428B3B] (AR v2)
Track 4 accurately ripped (confidence 5) [19294DC5] (AR v2)
Track 5 accurately ripped (confidence 5) [CF246B6A] (AR v2)
Track 6 accurately ripped (confidence 5) [8A4FC753] (AR v2)
Track 7 accurately ripped (confidence 5) [3689AA52] (AR v2)
Track 8 accurately ripped (confidence 5) [57696EF3] (AR v2)
Track 9 accurately ripped (confidence 5) [D459EAB6] (AR v2)
Track 10 accurately ripped (confidence 5) 93261EB (AR v2)

All tracks accurately ripped

End of status report

- CUETools DB Plugin V2.1.3

[CTDB TOCID: HMPtS5CpLYw.mtYVD_VPMOZOgtQ-] found, Submit result: HMPtS5CpLYw.mtYVD_VPMOZOgtQ- has been confirmed
[121010a0] (21/22) Accurately ripped
[599ae152] (01/22) No match

==== Log checksum F7D0774E6DB820D7968E90F4A50E5C98EDA0CFFB7AFA7B6888AE715830A6F5CE ====

foobar2000 1.2.6 / Dynamic Range Meter 1.1.1
log date: 2015-11-29 15:49:17

Analyzed: Protest the Hero / Kezia

DR Peak RMS Duration Track

DR6 -0.09 dB -7.26 dB 3:50 01-No Stars Over Bethlehem
DR6 -0.09 dB -7.69 dB 3:12 02-Heretics & Killers
DR6 -0.09 dB -8.11 dB 4:34 03-Divinity Within
DR5 -0.09 dB -6.35 dB 3:26 04-Bury the Hatchet
DR6 -0.09 dB -6.99 dB 3:00 05-Nautical
DR6 -0.09 dB -8.15 dB 6:01 06-Blindfolds Aside
DR6 -0.09 dB -7.39 dB 3:54 07-She Who Mars the Skin of Gods
DR6 -0.09 dB -7.96 dB 6:24 08-Turn Soonest to the Sea
DR6 -0.09 dB -7.53 dB 5:12 09-The Divine Suicide of K.
DR6 -0.09 dB -8.62 dB 4:30 10-A Plateful of Our Dead

Number of tracks: 10
Official DR value: DR6

Samplerate: 44100 Hz
Channels: 2
Bits per sample: 16
Bitrate: 1019 kbps
Codec: FLAC

[CUETools log; Date: 29.11.2015 15:48:42; Version: 2.1.5]
[CTDB TOCID: HMPtS5CpLYw.mtYVD_VPMOZOgtQ-] found.
Track | CTDB Status
1 | (23/23) Accurately ripped
2 | (23/23) Accurately ripped
3 | (23/23) Accurately ripped
4 | (23/23) Accurately ripped
5 | (23/23) Accurately ripped
6 | (23/23) Accurately ripped
7 | (22/23) Accurately ripped
8 | (23/23) Accurately ripped
9 | (23/23) Accurately ripped
10 | (23/23) Accurately ripped
[AccurateRip ID: 000f7cb5-007e5a17-840a530a] found.
Track [ CRC | V2 ] Status
01 [46eec908|d8983de1] (14+05/41) Accurately ripped
02 [2f31e34e|993a4e36] (14+05/41) Accurately ripped
03 [47700dc6|13428b3b] (14+05/41) Accurately ripped
04 [701b3ccc|19294dc5] (14+05/41) Accurately ripped
05 bc164e6|cf246b6a (14+05/41) Accurately ripped
06 [c856d723|8a4fc753] (13+05/40) Accurately ripped
07 [215b7c91|3689aa52] (14+05/41) Accurately ripped
08 [df664338|57696ef3] (14+05/41) Accurately ripped
09 [f1285e3a|d459eab6] (14+05/41) Accurately ripped
10 [30d9044e|b93261eb] (14+05/41) Accurately ripped
Offsetted by -18:
01 [59d016e6] (04/41) Accurately ripped
02 [2d52bb18] (04/41) Accurately ripped
03 [36f5efba] (04/41) Accurately ripped
04 [c21f0b28] (04/41) Accurately ripped
05 [845566d2] (04/41) Accurately ripped
06 [65b56d81] (04/40) Accurately ripped
07 [9baa4955] (04/41) Accurately ripped
08 [cbdef60a] (04/41) Accurately ripped
09 [c45ea4d8] (04/41) Accurately ripped
10 [fc355192] (04/41) Accurately ripped
Offsetted by -30:
01 [1110f57a] (00/41) No match (V2 was not tested)
02 [2c134af4] (00/41) No match (V2 was not tested)
03 [2bf9dbb2] (00/41) No match (V2 was not tested)
04 [a376ea10] (00/41) No match (V2 was not tested)
05 [0a0d681a] (00/41) No match (V2 was not tested)
06 [ce9f2715] (00/40) No match (V2 was not tested)
07 [ed34272d] (00/41) No match (V2 was not tested)
08 [6984c296] (00/41) No match (V2 was not tested)
09 [a682d3ec] (00/41) No match (V2 was not tested)
10 [2e72da6a] (00/41) No match (V2 was not tested)
Offsetted by -6:
01 [a28f3852] (00/41) No match (V2 was not tested)
02 [2e922b3c] (00/41) No match (V2 was not tested)
03 [41f203c2] (00/41) No match (V2 was not tested)
04 [e0c72c40] (00/41) No match (V2 was not tested)
05 [fe9d658a] (00/41) No match (V2 was not tested)
06 [fccbb3ed] (00/40) No match (V2 was not tested)
07 [4a206b7d] (00/41) No match (V2 was not tested)
08 [2e39297e] (00/41) No match (V2 was not tested)
09 [e23a75c4] (00/41) No match (V2 was not tested)
10 [c9f7c8ba] (00/41) No match (V2 was not tested)
Offsetted by 6:
01 [eb4e59be] (00/41) No match (V2 was not tested)
02 [2fd19b60] (00/41) No match (V2 was not tested)
03 [4cee17ca] (00/41) No match (V2 was not tested)
04 [ff6f4d58] (00/41) No match (V2 was not tested)
05 [78e56442] (00/41) No match (V2 was not tested)
06 [93e1fa59] (00/40) No match (V2 was not tested)
07 [f8968da5] (00/41) No match (V2 was not tested)
08 [90935cf2] (00/41) No match (V2 was not tested)
09 [001646b0] (00/41) No match (V2 was not tested)
10 [97ba3fe2] (00/41) No match (V2 was not tested)

Track Peak [ CRC32 ] [W/O NULL] [ LOG ]
-- 98,9 [CB29BD41] [34F31AF4] CRC32
01 98,9 [04338961] [346F590F]
02 98,9 [04B96339] [71D66DB8]
03 98,9 [35576A33] 6AE7444
04 98,9 [3F1A6456] [8D4F3440]
05 98,9 [1A99E525] BC1B81D
06 98,9 [E6D5B0A9] [311E56A0]
07 98,9 [F8B23F49] [8307F5F5]
08 98,9 [EE64BFA5] 09E35BF
09 98,9 [2BA078D7] 48D9E87
10 98,9 [51E86F0F] [A095B08F]

Protest The Hero - Kezia (2005/2006)


DOWNLOAD LINKS
(Premium Recommended)


Links are Interchangeable - No Password - Single Extraction
Direct Download

Tags: Protest

Protest The Hero - Kezia (2005/2006) Download via Hotfile Rapidshare Fileserve Megaupload & FileSonic, Protest The Hero - Kezia (2005/2006) free torrent downloads included crack, serial, keygen.Protest The Hero - Kezia (2005/2006) Fast Download via Rapidshare Hotfile Fileserve Filesonic Megaupload, Protest The Hero - Kezia (2005/2006) Torrents and Emule Download or anything related.
Leave a Comment
Your Name:
E-Mail:
Add Comments:

Enter Code: