Al Di Meola - Soaring Through A Dream (1985) {Manhattan}

Download Now

Al Di Meola - Soaring Through A Dream (1985) {Manhattan}

Al Di Meola - Soaring Through A Dream (1985) {Manhattan}
EAC 1.1 | FLAC Image level 8 | Cue+Log | Full Scans 600dpi | 271MB + 5% Recovery
Genre: Fusion

"This 1985 album from Al Di Meola followed on the heels of Pat Metheny's accomplished masterpiece, THE FIRST CIRCLE, and it bears a close resemblance. It's full of smooth, latin-flavored jazz complementing Di Meola's incomparable speed and technical excellence on guitar. "Capoeira" is worth the price of this CD alone -- gorgeous and breezy Brazilian style with Portuguese vocals by percussionist Airto Moreira. It's what Jobim could have sounded like had he been younger and actively writing in the 80's."

Track List
01. Capoeira 9:21
02. Traces (Of A Tear) 9:00
03. Broken Heart 6:20
04. July 5:25
05. Marina 4:45
06. Soaring Through A Dream 12:26

musicians
Al Di Meola - acoustic and synclavier guitars, classical guitar
Airto Moreira - percussion, vocals
Danny Gottlieb - drums
Phil Markowitz - keyboards, Steinway piano
Chip Jackson - electric and acoustic bass

Produced by Al Di Meola

Exact Audio Copy V1.1 from 23. June 2015

EAC extraction logfile from 8. October 2015, 20:24

Al Di Meola Project / Soaring Though A Dream (CDP 0777 746337 27)

Used drive : HL-DT-STDVDRAM GE20NU11 Adapter: 1 ID: 0

Read mode : Secure
Utilize accurate stream : Yes
Defeat audio cache : Yes
Make use of C2 pointers : No

Read offset correction

: 667
Overread into Lead-In and Lead-Out : No
Fill up missing offset samples with silence : Yes
Delete leading and trailing silent blocks : No
Null samples used in CRC calculations : Yes
Used interface
: Native Win32 interface for Win NT & 2000

Used output format : User Defined Encoder
Selected bitrate : 896 kBit/s
Quality : High
Add ID3 tag : No
Command line compressor : C:\Program Files\EAC 3\Exact Audio Copy\Flac\flac.exe
Additional command line options : -V -8 %source%

TOC of the extracted CD Track | Start | Length | Start sector | End sector
--1 | 0:00.00 | 9:21.72 | 0 | 42146 2 | 9:21.72 | 9:01.68 | 42147 | 82789 3 | 18:23.65 | 6:19.47 | 82790 | 111261 4 | 24:43.37 | 5:24.25 | 111262 | 135586 5 | 30:07.62 | 4:56.30 | 135587 | 157816 6 | 35:04.17 | 12:24.73 | 157817 | 213689

Range status and errors

Selected range Filename C:\OdW\Al Di Meola Project (1985) Soaring Though A Dream (CDP 0777 746337 27)\Al Di Meola Project - Soaring Though A Dream (CDP 0777 746337 27).wav Peak level 100.0 %
Extraction speed 6.9 X
Range quality 99.9 %
Test CRC 27336770
Copy CRC 27336770
Copy OK

No errors occurred


AccurateRip summary

Track 1 accurately ripped (confidence 13) [A2316599] (AR v2)
Track 2 accurately ripped (confidence 13) [0E35FF1D] (AR v2)
Track 3 accurately ripped (confidence 13) [786178F6] (AR v2)
Track 4 accurately ripped (confidence 13) [9B94E86F] (AR v2)
Track 5 accurately ripped (confidence 13) [02C19E42] (AR v2)
Track 6 accurately ripped (confidence 13) [9BB5D88B] (AR v2)

All tracks accurately ripped

End of status report

- CUETools DB Plugin V2.1.6

[CTDB TOCID: VSdr7_b8_MrYJQJoQ6gl4jpIEks-] found
Submit result: VSdr7_b8_MrYJQJoQ6gl4jpIEks- has been confirmed
Track | CTDB Status
1 | (20/20) Accurately ripped
2 | (20/20) Accurately ripped
3 | (20/20) Accurately ripped
4 | (20/20) Accurately ripped
5 | (19/20) Accurately ripped
6 | (18/20) Accurately ripped

==== Log checksum 27EECA020B5E0451ABB80B6BBFDC24F891AB6E950D3D35DE42B427B9DAD68C26 ====

Analyzed: Al Di Meola / Soaring Though A Dream

DR Peak RMS Duration Track

DR13 0.00 dB -17.47 dB 9:22 01-Capoeira
DR13 0.00 dB -17.73 dB 9:02 02-Traces (Of A Tear)
DR13 -5.77 dB -24.26 dB 6:20 03-Broken Heart
DR14 -0.51 dB -17.34 dB 5:24 04-July
DR15 -4.24 dB -22.18 dB 4:56 05-Marina
DR14 -2.98 dB -21.78 dB 12:25 06-Soaring Through A Dream

Number of tracks: 6
Official DR value: DR14

Samplerate: 44100 Hz
Channels: 2
Bits per sample: 16
Bitrate: 730 kbps
Codec: FLAC

Al Di Meola - Soaring Through A Dream (1985) {Manhattan}

Al Di Meola - Soaring Through A Dream (1985) {Manhattan}

Al Di Meola - Soaring Through A Dream (1985) {Manhattan}

Rip by Olaf


DOWNLOAD LINKS
Buy Premium From My Links To Get Resumable Support & Max Speed & To Support Me


Links are Interchangeable - No Password - Single Extraction
Direct Download

Tags: Soaring, Through, Manhattan

Al Di Meola - Soaring Through A Dream (1985) {Manhattan} Download via Hotfile Rapidshare Fileserve Megaupload & FileSonic, Al Di Meola - Soaring Through A Dream (1985) {Manhattan} free torrent downloads included crack, serial, keygen.Al Di Meola - Soaring Through A Dream (1985) {Manhattan} Fast Download via Rapidshare Hotfile Fileserve Filesonic Megaupload, Al Di Meola - Soaring Through A Dream (1985) {Manhattan} Torrents and Emule Download or anything related.
Leave a Comment
Your Name:
E-Mail:
Add Comments:

Enter Code: