Mashu - Elephants In Your Head? (1996)

Download Now

Mashu - Elephants In Your Head? (1996)

Mashu - Elephants In Your Head? (1996)
EAC Rip | FLAC (Img) + Cue + Log ~ 238 Mb | MP3 CBR320 ~ 122 Mb
Scans Included (JPG, 300 dpi) | RAR 5% Recovery
Jazz-Rock, Fusion, Prog Rock, Сanterbury Scene | Voiceprint #VP188CD

"Continuing a long tradition of Canterbury 'supergroups', Mashu evolved out of a decade-long musical collaboration between Hugh Hopper and Mark Hewins, first officially documented on their duo release Adreamor (1995, Impetus Records), taken from recordings made at an improvised gig at London's Vortex Club in April 1994. With the arrival of former Gong percussionist Shyamal Maïtra, the idea of an improvising collective making extensive use of electric instruments and Midi technology was taken a step further. Mashu made its debut at London's Vortex Jazz Bar on February 26th, 1995..."

Mashu - Elephants In Your Head? (1996)

Wiki | Discogs
***************

Mashu - Elephants In Your Head? (1996)

Track List:

01. Used To [05:43]
02. Chariot [07:19]
03. Sea Beyond [03:33]
04. Jus De Peche [03:08]
05. Elephant [08:12]
06. Bell & Clay [03:56]
07. Passage Thru Nw [01:43]
08. Afaiu [04:55]
09. Chariot Repriese [08:19]

Mark Hewins - guitar
Shyamal Maïtra - percussion
Hugh Hopper - bass

Exact Audio Copy V1.0 beta 3 from 29. August 2011

EAC extraction logfile from 6. October 2013, 10:08

Mashu (2) / Elephants In Your Head?

Used drive : HL-DT-STBDDVDRW GBC-H20N Adapter: 1 ID: 0

Read mode : Secure
Utilize accurate stream : Yes
Defeat audio cache : Yes
Make use of C2 pointers : No

Read offset correction

: 667
Overread into Lead-In and Lead-Out : No
Fill up missing offset samples with silence : Yes
Delete leading and trailing silent blocks : No
Null samples used in CRC calculations : Yes
Used interface
: Native Win32 interface for Win NT & 2000

Used output format : User Defined Encoder
Selected bitrate : 1024 kBit/s
Quality : High
Add ID3 tag : No
Command line compressor : C:\Program Files\Exact Audio Copy\wavpack.exe
Additional command line options : -hm %source% %dest%

TOC of the extracted CD Track | Start | Length | Start sector | End sector
--1 | 0:00.00 | 5:42.37 | 0 | 25686 2 | 5:42.37 | 7:18.05 | 25687 | 58541 3 | 13:00.42 | 3:32.13 | 58542 | 74454 4 | 16:32.55 | 3:07.57 | 74455 | 88536 5 | 19:40.37 | 8:11.05 | 88537 | 125366 6 | 27:51.42 | 3:55.58 | 125367 | 143049 7 | 31:47.25 | 1:42.52 | 143050 | 150751 8 | 33:30.02 | 4:54.50 | 150752 | 172851 9 | 38:24.52 | 8:18.05 | 172852 | 210206

Range status and errors

Selected range Filename C:\Users\ProgDog\Music\ZALIVKI\Canterbury Scene\Other\Mashu - Elephants In Your Head 1996\Mashu (2) - Elephants In Your Head.wav Peak level 100.0 %
Extraction speed 5.8 X
Range quality 99.9 %
Test CRC 0C2EE6C0
Copy CRC 0C2EE6C0
Copy OK

No errors occurred


AccurateRip summary

Track 1 accurately ripped (confidence 1) [E1171E46] (AR v2)
Track 2 accurately ripped (confidence 1) [35AB929C] (AR v2)
Track 3 accurately ripped (confidence 1) [76B238BD] (AR v2)
Track 4 accurately ripped (confidence 1) [5DE75322] (AR v2)
Track 5 accurately ripped (confidence 1) [920A4131] (AR v2)
Track 6 accurately ripped (confidence 1) [C204231F] (AR v2)
Track 7 accurately ripped (confidence 1) [49189653] (AR v2)
Track 8 accurately ripped (confidence 1) [E12C89E0] (AR v2)
Track 9 accurately ripped (confidence 1) [31599120] (AR v2)

All tracks accurately ripped

End of status report

- CUETools DB Plugin V2.1.3

[CTDB TOCID: WmVneLlwUHtOBUmKQH5cZN5ZvV0-] disk not present in database, Submit result: WmVneLlwUHtOBUmKQH5cZN5ZvV0- has been uploaded

==== Log checksum F690A5995B766B4825C259C4BE7DA6A891B5AB3DA630A67AA4EFB33191B61877 ====

foobar2000 1.2.6 / Dynamic Range Meter 1.1.1
log date: 2015-12-01 02:42:26

Analyzed: Mashu / Elephants In Your Head?

DR Peak RMS Duration Track

DR13 0.00 dB -16.84 dB 5:42 01-Used To
DR9 0.00 dB -13.54 dB 7:18 02-Chariot
DR9 -0.10 dB -12.37 dB 3:32 03-Sea Beyond
DR12 0.00 dB -16.38 dB 3:08 04-Jus De Peche
DR6 -0.20 dB -8.95 dB 8:11 05-Elephant
DR11 -0.20 dB -16.26 dB 3:56 06-Bell & Clay
DR11 -0.47 dB -16.24 dB 1:43 07-Passage Thru Nw
DR11 -0.10 dB -14.02 dB 4:55 08-Afaiu
DR22 -0.47 dB -28.35 dB 8:18 09-Chariot Repriese

Number of tracks: 9
Official DR value: DR11

Samplerate: 44100 Hz
Channels: 2
Bits per sample: 16
Bitrate: 650 kbps
Codec: FLAC

[CUETools log; Date: 01.12.2015 2:42:37; Version: 2.1.5]
[CTDB TOCID: WmVneLlwUHtOBUmKQH5cZN5ZvV0-] found.
Track | CTDB Status
1 | (1/1) Accurately ripped
2 | (1/1) Accurately ripped
3 | (1/1) Accurately ripped
4 | (1/1) Accurately ripped
5 | (1/1) Accurately ripped
6 | (1/1) Accurately ripped
7 | (1/1) Accurately ripped
8 | (1/1) Accurately ripped
9 | (1/1) Accurately ripped
[AccurateRip ID: 00100369-0073bc2c-740af209] found.
Track [ CRC | V2 ] Status
01 [fa96e071|e1171e46] (1+1/2) Accurately ripped
02 [ea17187f|35ab929c] (1+1/2) Accurately ripped
03 4e97d53|76b238bd (1+1/2) Accurately ripped
04 [ea1d4fa0|5de75322] (1+1/2) Accurately ripped
05 [f97249a5|920a4131] (1+1/2) Accurately ripped
06 ead3c39|c204231f (1+1/2) Accurately ripped
07 [e0de3d48|49189653] (1+1/2) Accurately ripped
08 [9b6e5a67|e12c89e0] (1+1/2) Accurately ripped
09 [3c328e90|31599120] (1+1/2) Accurately ripped

Track Peak [ CRC32 ] [W/O NULL] [ LOG ]
-- 100,0 [0C2EE6C0] [5FE18177] CRC32
01 99,9 [4950C230] [706423C2]
02 100,0 [EDCD5102] [A0168F39]
03 98,8 [2F9BCDB9] [CC32756F]
04 99,9 [E7FAE8C9] [0A9DE1E8]
05 97,7 FDEBEF0 [2968B426]
06 97,7 [965AAEA3] [06B66C46]
07 94,6 [A0DF738B] F919052
08 98,8 [285B9494] [8F5FCDFD]
09 94,7 [4A8EA551] [43142E8B]

Mashu - Elephants In Your Head? (1996)

Mashu - Elephants In Your Head? (1996)


DOWNLOAD:
Buy Premium To Support Me & Get Resumable Support & Max Speed


Links are Interchangeable - No Password
Direct Download

Tags: Elephants

Mashu - Elephants In Your Head? (1996) Download via Hotfile Rapidshare Fileserve Megaupload & FileSonic, Mashu - Elephants In Your Head? (1996) free torrent downloads included crack, serial, keygen.Mashu - Elephants In Your Head? (1996) Fast Download via Rapidshare Hotfile Fileserve Filesonic Megaupload, Mashu - Elephants In Your Head? (1996) Torrents and Emule Download or anything related.
Leave a Comment
Your Name:
E-Mail:
Add Comments:

Enter Code: