Al Di Meola - Tirami Su (1987) {Manhattan}

Download Now

Al Di Meola - Tirami Su (1987) {Manhattan}

Al Di Meola - Tirami Su (1987) {Manhattan}
EAC 1.1 | FLAC Image level 8 | Cue+Log | Full Scans 600dpi | 300MB + 5% Recovery
Genre: Fusion

"Al di Meola, who in his early days sometimes sacrificed feeling for speed (he always had remarkable technique), grew and developed through the years. His final of three Manhattan releases is his finest, a sextet outing with keyboardist Kei Akagi, electric bassist Anthony Jackson, acoustic bassist Harvie Swartz, drummer Tommy Brechtlein, and his longtime percussionist, Mino Cinelu. Having grown out of his fusion roots, di Meola's interest in world music and folk music from other countries is displayed throughout this colorful set, particularly on such numbers as "Beijing Demons," "Song to the Pharoah Kings," and the exciting "Rhapsody of Fire.""

Track List
01. Beijing Demons 6:26
02. Arabella 7:14
03. Smile From a Stranger 5:43
04. Rhapsody Of Fire 5:05
05. Song To The Pharaoh Kings 8:50
06. Andonea 3:09
07. Maraba 5:24
08. Song With A View 6:26
09. Tirami Su Part 1 1:10

musicians
Al Di Meola - guitar
Anthony Jackson - bass guitar
Kei Akagi - keyboards
Tom Brechtlein - drums
Mino Cinélu - percussion
Jose Renato - vocals
Clara Sandroni - vocals
Harvie Swartz - acoustic bass

Produced by Al Di Meola

Exact Audio Copy V1.1 from 23. June 2015

EAC extraction logfile from 8. October 2015, 20:46

Al Di Meola Project / Tirami Su (CDP-7-46995-2)

Used drive : HL-DT-STDVDRAM GE20NU11 Adapter: 1 ID: 0

Read mode : Secure
Utilize accurate stream : Yes
Defeat audio cache : Yes
Make use of C2 pointers : No

Read offset correction

: 667
Overread into Lead-In and Lead-Out : No
Fill up missing offset samples with silence : Yes
Delete leading and trailing silent blocks : No
Null samples used in CRC calculations : Yes
Used interface
: Native Win32 interface for Win NT & 2000

Used output format : User Defined Encoder
Selected bitrate : 896 kBit/s
Quality : High
Add ID3 tag : No
Command line compressor : C:\Program Files\EAC 3\Exact Audio Copy\Flac\flac.exe
Additional command line options : -V -8 %source%

TOC of the extracted CD Track | Start | Length | Start sector | End sector
--1 | 0:00.37 | 6:26.15 | 37 | 29001 2 | 6:26.52 | 7:14.53 | 29002 | 61604 3 | 13:41.30 | 5:43.00 | 61605 | 87329 4 | 19:24.30 | 5:05.37 | 87330 | 110241 5 | 24:29.67 | 8:50.30 | 110242 | 150021 6 | 33:20.22 | 3:09.73 | 150022 | 164269 7 | 36:30.20 | 5:24.05 | 164270 | 188574 8 | 41:54.25 | 6:26.05 | 188575 | 217529 9 | 48:20.30 | 1:10.52 | 217530 | 222831

Range status and errors

Selected range Filename C:\OdW\Al Di Meola Project (1987) Tirami Su (CDP-7-46995-2)\Al Di Meola Project - Tirami Su (CDP-7-46995-2).wav Peak level 99.5 %
Extraction speed 6.8 X
Range quality 99.9 %
Test CRC 439D60C3
Copy CRC 439D60C3
Copy OK

No errors occurred


AccurateRip summary

Track 1 accurately ripped (confidence 2) [61BB48A1] (AR v2)
Track 2 accurately ripped (confidence 2) [7F921183] (AR v2)
Track 3 accurately ripped (confidence 2) [8C00CE09] (AR v2)
Track 4 accurately ripped (confidence 2) [3FE6759F] (AR v2)
Track 5 accurately ripped (confidence 2) [7F43C23A] (AR v2)
Track 6 accurately ripped (confidence 2) [7E83CB6C] (AR v2)
Track 7 accurately ripped (confidence 2) 23036F3 (AR v2)
Track 8 accurately ripped (confidence 2) [0E0C618D] (AR v2)
Track 9 accurately ripped (confidence 2) 2F6E141 (AR v2)

All tracks accurately ripped

End of status report

- CUETools DB Plugin V2.1.6

[CTDB TOCID: COEEa.9wM3RKwwWfNP.g4Rq7I3U-] found
Submit result: COEEa.9wM3RKwwWfNP.g4Rq7I3U- has been confirmed
Track | CTDB Status
1 | (1/1) Accurately ripped
2 | (1/1) Accurately ripped
3 | (1/1) Accurately ripped
4 | (1/1) Accurately ripped
5 | (1/1) Accurately ripped
6 | (1/1) Accurately ripped
7 | (1/1) Accurately ripped
8 | (1/1) Accurately ripped
9 | (1/1) Accurately ripped

==== Log checksum 4FB9E957E1C0E66BED605F87A9C1B82C3EDFF00AC18345919FBA8F8E8E1D2D95 ====

Analyzed: Al Di Meola / Tirami Su

DR Peak RMS Duration Track

DR12 -0.41 dB -15.17 dB 6:26 01-Beijing Demons
DR14 -0.04 dB -18.60 dB 7:15 02-Arabella
DR11 -3.58 dB -18.90 dB 5:43 03-Smile From a Stranger
DR13 -3.38 dB -19.69 dB 5:05 04-Rhapsody of Fire
DR13 -1.32 dB -17.95 dB 8:50 05-Song to the Pharaoh Kings
DR12 -5.17 dB -24.30 dB 3:10 06-Andonea
DR13 -2.01 dB -18.51 dB 5:24 07-Maraba
DR13 -2.71 dB -19.74 dB 6:26 08-Song with a View
DR12 -5.52 dB -22.37 dB 1:11 09-Tirami Su Part 1

Number of tracks: 9
Official DR value: DR13

Samplerate: 44100 Hz
Channels: 2
Bits per sample: 16
Bitrate: 761 kbps
Codec: FLAC

Al Di Meola - Tirami Su (1987) {Manhattan}

Al Di Meola - Tirami Su (1987) {Manhattan}

Al Di Meola - Tirami Su (1987) {Manhattan}

Rip by Olaf


DOWNLOAD LINKS
Buy Premium From My Links To Get Resumable Support & Max Speed & To Support Me


Links are Interchangeable - No Password - Single Extraction
Direct Download

Tags: Tirami, Manhattan

Al Di Meola - Tirami Su (1987) {Manhattan} Download via Hotfile Rapidshare Fileserve Megaupload & FileSonic, Al Di Meola - Tirami Su (1987) {Manhattan} free torrent downloads included crack, serial, keygen.Al Di Meola - Tirami Su (1987) {Manhattan} Fast Download via Rapidshare Hotfile Fileserve Filesonic Megaupload, Al Di Meola - Tirami Su (1987) {Manhattan} Torrents and Emule Download or anything related.
Leave a Comment
Your Name:
E-Mail:
Add Comments:

Enter Code: