Greg Howe, Victor Wooten, Dennis Chambers - Extraction (2003) {Tone Center}

Download Now

Greg Howe, Victor Wooten, Dennis Chambers - Extraction (2003) {Tone Center}

Greg Howe, Victor Wooten, Dennis Chambers - Extraction (2003) {Tone Center}
EAC 0.95b4 | FLAC Image level 8 | Cue+Log | Full Scans 300dpi | 361MB + 5% Recovery
Genre: Fusion

"Although he's primarily known as a heavy metal shredder, guitarist Greg Howe can pretty much adapt to any style thrown his way -- including jazz fusion. And this is precisely the style that is featured throughout 2003's Extraction, which saw Howe joined by such top-notch instrumentalists as Victor Wooten on bass and Dennis Chambers on drums (as well as David Cook on keys)."

Track List
01. Extraction (6:14)
02. Tease (6:07)
03. Crack It Way Open (5:59)
04. Contigo (6:30)
05. Proto Cosmos (4:16)
06. A Delicacy (2:24)
07. Lucky 7 (6:02)
08. Ease Up (6:20)
09. Bird's Eye View (6:19)

musicians
Greg Howe - guitar, guitar synth, keyboards
Victor Wooten - bass
Dennis Chambers - drums
with
Dave Cook - additional keyboards, keyboard solos

Produced by Greg Howe

EAC extraction logfile from 11. January 2008, 14:01 for CD
Greg Howe, Victor Wooten, Dennis Chambers / Extraction

Used drive : ASUS DRW-1814BL Adapter: 0 ID: 0
Read mode : Secure with NO C2, accurate stream, disable cache
Read offset correction : 6
Overread into Lead-In and Lead-Out : No

Used output format : Internal WAV Routines 44.100 Hz; 16 Bit; Stereo

Other options :
Fill up missing offset samples with silence : Yes
Delete leading and trailing silent blocks : No
Installed external ASPI interface

Range status and errors
Selected range
Filename F:\0\CDImage.wav Peak level 98.8 %
Range quality 100.0 %
CRC 2C98D741
Copy OK

No errors occured

End of status report

Analyzed: Greg Howe, Victor Wooten, Dennis Chambers / Extraction

DR Peak RMS Duration Track

DR9 -0.10 dB -10.70 dB 6:14 01-Extraction
DR9 -0.10 dB -11.11 dB 6:07 02-Tease
DR10 -0.10 dB -12.25 dB 5:59 03-Crack It Way Open
DR9 -0.10 dB -10.38 dB 6:30 04-Contigo
DR9 -0.10 dB -10.04 dB 4:16 05-Proto Cosmos
DR10 -0.72 dB -12.75 dB 2:24 06-A Delicacy
DR9 -0.10 dB -11.12 dB 6:02 07-Lucky 7
DR8 -0.10 dB -10.21 dB 6:20 08-Ease Up
DR10 -0.10 dB -11.39 dB 6:19 09-Bird's Eye View

Number of tracks: 9
Official DR value: DR9

Samplerate: 44100 Hz
Channels: 2
Bits per sample: 16
Bitrate: 909 kbps
Codec: FLAC

Greg Howe, Victor Wooten, Dennis Chambers - Extraction (2003) {Tone Center}

Greg Howe, Victor Wooten, Dennis Chambers - Extraction (2003) {Tone Center}

Greg Howe, Victor Wooten, Dennis Chambers - Extraction (2003) {Tone Center}



DOWNLOAD LINKS:
(Premium Recommended)


All above links are interchangable. No password
Direct Download

Tags: Victor, Wooten, Dennis, Chambers, Extraction, Center

Greg Howe, Victor Wooten, Dennis Chambers - Extraction (2003) {Tone Center} Download via Hotfile Rapidshare Fileserve Megaupload & FileSonic, Greg Howe, Victor Wooten, Dennis Chambers - Extraction (2003) {Tone Center} free torrent downloads included crack, serial, keygen.Greg Howe, Victor Wooten, Dennis Chambers - Extraction (2003) {Tone Center} Fast Download via Rapidshare Hotfile Fileserve Filesonic Megaupload, Greg Howe, Victor Wooten, Dennis Chambers - Extraction (2003) {Tone Center} Torrents and Emule Download or anything related.
Leave a Comment
Your Name:
E-Mail:
Add Comments:

Enter Code: