Bill Bruford - A Part, And Yet Apart (1999) {DGM}

Download Now

Bill Bruford - A Part, And Yet Apart (1999) {DGM}

Bill Bruford - A Part, And Yet Apart (1999) {DGM}
EAC 0.95b3 | FLAC tracks level 8 | Cue+Log+M3U | Full Scans 300dpi | 338MB + 5% Recovery
Genre: Fusion

"When Bill Bruford led his jazz-oriented Earthworks combo in the '80s and '90s, jazz supporters were hoping that he was turning a lot of rockers on to jazz. After all, he had been Yes' drummer from 1968-1972 and was highly regarded by progressive rock lovers. And, to be sure, some Yes fans bought Earthworks CDs simply because it was Bruford's band. Of course, A Part, And Yet Apart is a long way from the music Bruford played on classic Yes albums like Fragile and Close to the Edge (which was his last album with the band by the time Tales from Topographic Oceans was recorded in 1973, Alan White had become Yes' drummer). This is acoustic-oriented jazz, and the playing of Bruford and his Earthworks sidemen Patrick Clahar (tenor and soprano sax), Steve Hamilton (piano, keyboards) and Mark Hodgson (acoustic bass) is swinging and mostly straight-ahead."

Track List
01. No Truce With The Furies
02. A Part, And Yet Apart
03. Some Shiver, While He Cavorts
04. Footloose And Fancy Free
05. Sarah's Still Life
06. The Emperor's New Clothes
07. Curiouser And Curiouser
08. Eyes On The Horizon
09. Dewey-Eyed, Then Dancing

musicians
Bill Bruford - drums
Steve Hamilton - piano, keyboards
Patrick Clahar - tenor and soprano saxophones
Mark Hodgson - bass

Produced by Bill Bruford

EAC extraction logfile from 29. November 2008, 20:34 for CD
Bill Bruford's Earthworks / A Part, And Yet Apart

Used drive : PLEXTOR CD-R PREMIUM2 Adapter: 1 ID: 1
Read mode : Secure with NO C2, accurate stream, disable cache
Read offset correction : 30
Overread into Lead-In and Lead-Out : No

Used output format : C:\Programmi\FLAC\flac.exe (User Defined Encoder) 32 kBit/s Additional command line options : -8 -V -T "ARTIST=%a" -T "TITLE=%t" -T "ALBUM=%g" -T "DATE=%y" -T "TRACKNUMBER=%n" -T "GENRE=%m" -T "COMMENT=EAC FLAC -8" %s

Other options :
Fill up missing offset samples with silence : Yes
Delete leading and trailing silent blocks : No
Installed external ASPI interface

Track 1
Filename D:\My Rip\01 - No Truce With The Furies.wav Pre-gap length 0:00:02.00 Peak level 99.5 %
Track quality 100.0 %
Test CRC 9CE901AD
Copy CRC 9CE901AD
Copy OK

Track 2
Filename D:\My Rip\02 - A Part, And Yet Apart.wav Pre-gap length 0:00:04.66 Peak level 99.9 %
Track quality 99.9 %
Test CRC 31DB550E
Copy CRC 31DB550E
Copy OK

Track 3
Filename D:\My Rip\03 - Some Shiver, While He Cavorts.wav Pre-gap length 0:00:06.13 Peak level 98.6 %
Track quality 99.9 %
Test CRC B7E99110
Copy CRC B7E99110
Copy OK

Track 4
Filename D:\My Rip\04 - Footloose And Fancy Free.wav Pre-gap length 0:00:06.13 Peak level 100.0 %
Track quality 100.0 %
Test CRC CF4D94CD
Copy CRC CF4D94CD
Copy OK

Track 5
Filename D:\My Rip\05 - Sarah's Still Life.wav Pre-gap length 0:00:06.09 Peak level 94.1 %
Track quality 100.0 %
Test CRC D21A2603
Copy CRC D21A2603
Copy OK

Track 6
Filename D:\My Rip\06 - The Emperor's New Clothes.wav Pre-gap length 0:00:04.73 Peak level 99.4 %
Track quality 100.0 %
Test CRC 8DC18B22
Copy CRC 8DC18B22
Copy OK

Track 7
Filename D:\My Rip\07 - Curiouser And Curiouser.wav Pre-gap length 0:00:04.90 Peak level 98.1 %
Track quality 100.0 %
Test CRC FF10B35E
Copy CRC FF10B35E
Copy OK

Track 8
Filename D:\My Rip\08 - Eyes On The Horizon.wav Pre-gap length 0:00:05.86 Peak level 100.0 %
Track quality 100.0 %
Test CRC 5AF4F4F0
Copy CRC 5AF4F4F0
Copy OK

Track 9
Filename D:\My Rip\09 - Dewey-Eyed, Then Dancing.wav Pre-gap length 0:00:04.33 Peak level 99.7 %
Track quality 99.9 %
Test CRC DD637C0B
Copy CRC DD637C0B
Copy OK

No errors occured

End of status report

Analyzed: Bill Bruford's Earthworks / A Part, And Yet Apart

DR Peak RMS Duration Track

DR11 -0.04 dB -12.24 dB 4:59 01-No Truce With The Furies
DR11 0.00 dB -13.97 dB 5:38 02-A Part, And Yet Apart
DR11 -0.12 dB -13.31 dB 4:15 03-Some Shiver, While He Cavorts
DR11 0.00 dB -12.78 dB 6:41 04-Footloose And Fancy Free
DR13 -0.52 dB -16.62 dB 7:08 05-Sarah's Still Life
DR10 -0.05 dB -11.43 dB 5:31 06-The Emperor's New Clothes
DR11 -0.16 dB -12.91 dB 3:57 07-Curiouser And Curiouser
DR11 0.00 dB -12.91 dB 5:10 08-Eyes On The Horizon
DR11 -0.03 dB -14.56 dB 5:36 09-Dewey-Eyed, Then Dancing

Number of tracks: 9
Official DR value: DR11

Samplerate: 44100 Hz
Channels: 2
Bits per sample: 16
Bitrate: 871 kbps
Codec: FLAC

Bill Bruford - A Part, And Yet Apart (1999) {DGM}

Bill Bruford - A Part, And Yet Apart (1999) {DGM}

Bill Bruford - A Part, And Yet Apart (1999) {DGM}

Rip by Sarchiapone


DOWNLOAD LINKS
Buy Premium From My Links To Get Resumable Support & Max Speed & To Support Me


Links are Interchangeable - No Password - Single Extraction
Direct Download

Tags: Bruford

Bill Bruford - A Part, And Yet Apart (1999) {DGM} Download via Hotfile Rapidshare Fileserve Megaupload & FileSonic, Bill Bruford - A Part, And Yet Apart (1999) {DGM} free torrent downloads included crack, serial, keygen.Bill Bruford - A Part, And Yet Apart (1999) {DGM} Fast Download via Rapidshare Hotfile Fileserve Filesonic Megaupload, Bill Bruford - A Part, And Yet Apart (1999) {DGM} Torrents and Emule Download or anything related.
Leave a Comment
Your Name:
E-Mail:
Add Comments:

Enter Code: