The Manhattan Transfer - The Spirit Of St. Louis (2000)

Download Now

The Manhattan Transfer - The Spirit Of St. Louis (2000)

The Manhattan Transfer - The Spirit Of St. Louis (2000)
EAC Rip | FLAC with CUE and log | scans | 326 mb
MP3 CBR 320kbps | RAR | 155 mb
Genre: vocal jazz, jazz, pop

The Spirit Of St. Louis is a 2000 CD by The Manhattan Transfer. This was released by Atlantic.
"You always look for new things from the Manhattan Transfer, and after a couple of releases that weren't too innovative, followed by a three-year gap, suddenly they come out with a really peculiar-sounding, refreshingly weird observance of the Louis Armstrong centennial. It sounds as if they had spent those three years racking their brains trying to come up with a totally different studio sound that's neither nostalgic nor modern. Which is exactly what they've done; the sound is compressed to evoke that of an ancient 78 rpm disc but not any 78 you'll ever encounter, whether by Louis or anyone. You hear all kinds of odd things bumping around in the back like loose parts in a machine, strange electronic treatments of the voices, an accordion wailing through many of the tracks, Delta blues guitar, Cajun, and rock & roll, and even more modern styles (with members of k.d. lang's band and Los Lobos's Steve Berlin joining in). The A&R guys probably would have killed to make this CD an exercise in reverent nostalgia -- "Do You Know What It Means to Miss Orleans" is the closest thing to it -- but a track like "A Kiss to Build a Dream On" with its touch of hip-hop in the rhythm, electronically limited guitar, and strings doesn't sound nostalgic in the least. "Gone Fishin'" is an affectionate, extended Alan Paul/Tim Hauser takeoff on the easygoing rapport between Armstrong and Bing Crosby on their duet version, wisely leaving the funny topical references to the original. "Nothing Could Be Hotter Than That" has some trademark Cheryl Bentyne high-wire vocalese. And to end the album, a normally warm and cozy tune like "When You Wish Upon a Star" opens and closes with a spacy electronic arrangement, with harmonies that thankfully undercut the sweetness, transforming the tune. Louis Armstrong wouldn't have recognized this "tribute," but his younger self probably would have hailed the Transfer's renewed moxie and experimental spirit."


The Manhattan Transfer - The Spirit Of St. Louis (2000)

01. Stompin' At Mahogany Hall
02. The Blues Are Brewin'
03. Sugar
04. A Kiss To Build A Dream On
05. Old Man Mose
06. Do You Know What It Means To Miss New Orleans
07. Gone Fishin'
08. Nothing Could Be Hotter Than That
09. Blue Again
10. When You Wish Upon A Star

THE MANHATTAN TRANSFER
Janis Siegel
Cheryl Bentyne
Tim Hauser
Alan Paul


Produced by Craig Street

The Manhattan Transfer - The Spirit Of St. Louis (2000)



EAC extraction logfile from 1. September 2006, 2:41 for CD
The Manhattan Transfer / The Spirit of St. Louis

Used drive : LITE-ON DVDRW SOHW-1633S Adapter: 0 ID: 0
Read mode : Secure with NO C2, accurate stream, disable cache
Read offset correction : 12
Overread into Lead-In and Lead-Out : No

Used output format : Internal WAV Routines 44.100 Hz; 16 Bit; Stereo

Other options :
Fill up missing offset samples with silence : Yes
Delete leading and trailing silent blocks : No
Installed external ASPI interface

Track 1
Filename D:\FLAC\The Manhattan Transfer - The Spirit Of St. Louis (2000) [FLAC]\01 - Stompin' At Mahogany Hall.wav Pre-gap length 0:00:02.42 Peak level 99.7 %
Track quality 100.0 %
Test CRC 0D6A6871
Copy CRC 0D6A6871
Copy OK

Track 2
Filename D:\FLAC\The Manhattan Transfer - The Spirit Of St. Louis (2000) [FLAC]\02 - The Blues Are Brewin'.wav Peak level 99.8 %
Track quality 100.0 %
Test CRC B0CE2DEE
Copy CRC B0CE2DEE
Copy OK

Track 3
Filename D:\FLAC\The Manhattan Transfer - The Spirit Of St. Louis (2000) [FLAC]\03 - Sugar.wav Peak level 99.8 %
Track quality 100.0 %
Test CRC B5748EE9
Copy CRC B5748EE9
Copy OK

Track 4
Filename D:\FLAC\The Manhattan Transfer - The Spirit Of St. Louis (2000) [FLAC]\04 - A Kiss To Build A Dream On.wav Peak level 87.2 %
Track quality 99.9 %
Test CRC 3FBCA95A
Copy CRC 3FBCA95A
Copy OK

Track 5
Filename D:\FLAC\The Manhattan Transfer - The Spirit Of St. Louis (2000) [FLAC]\05 - Old Man Mose.wav Peak level 99.8 %
Track quality 100.0 %
Test CRC DC92D535
Copy CRC DC92D535
Copy OK

Track 6
Filename D:\FLAC\The Manhattan Transfer - The Spirit Of St. Louis (2000) [FLAC]\06 - Do You Know What It Means To Miss New Orleans.wav Peak level 99.8 %
Track quality 100.0 %
Test CRC 6484FDC1
Copy CRC 6484FDC1
Copy OK

Track 7
Filename D:\FLAC\The Manhattan Transfer - The Spirit Of St. Louis (2000) [FLAC]\07 - Gone Fishin'.wav Peak level 99.8 %
Track quality 100.0 %
Test CRC 18974655
Copy CRC 18974655
Copy OK

Track 8
Filename D:\FLAC\The Manhattan Transfer - The Spirit Of St. Louis (2000) [FLAC]\08 - Nothing Could Be Hotter Than That.wav Peak level 99.8 %
Track quality 100.0 %
Test CRC 75621AF5
Copy CRC 75621AF5
Copy OK

Track 9
Filename D:\FLAC\The Manhattan Transfer - The Spirit Of St. Louis (2000) [FLAC]\09 - Blue Again.wav Peak level 99.8 %
Track quality 100.0 %
Test CRC 9A9DCB32
Copy CRC 9A9DCB32
Copy OK

Track 10
Filename D:\FLAC\The Manhattan Transfer - The Spirit Of St. Louis (2000) [FLAC]\10 - When You Wish Upon a Star.wav Peak level 99.7 %
Track quality 100.0 %
Test CRC 74B7C8FA
Copy CRC 74B7C8FA
Copy OK

No errors occured

End of status report

The Manhattan Transfer - The Spirit Of St. Louis (2000)

DOWNLOAD LINKS
Buy Premium From My Links To Get Resumable Support & Max Speed & To Support Me


Links are Interchangeable - No Password - Single Extraction
Direct Download

Tags: Manhattan, Transfer, Spirit

The Manhattan Transfer - The Spirit Of St. Louis (2000) Download via Hotfile Rapidshare Fileserve Megaupload & FileSonic, The Manhattan Transfer - The Spirit Of St. Louis (2000) free torrent downloads included crack, serial, keygen.The Manhattan Transfer - The Spirit Of St. Louis (2000) Fast Download via Rapidshare Hotfile Fileserve Filesonic Megaupload, The Manhattan Transfer - The Spirit Of St. Louis (2000) Torrents and Emule Download or anything related.
Leave a Comment
Your Name:
E-Mail:
Add Comments:

Enter Code: