Manu Katche - It's About Time (1991) {Sacre}

Download Now

Manu Katche - It's About Time (1991) {Sacre}

Manu Katche - It's About Time (1991) {Sacre}
EAC 0.99pb3 | FLAC Image level 8 | Cue+Log | Full Scans 300dpi | 278MB + 5% Recovery
Genre: Vocal Jazz, Fusion

"When the talented session drummer Manu Katche decided to release his own solo effort, his colleagues from studio gigs with Sting, Peter Gabriel, Tori Amos, Joni Mitchell, Tracy Chapman, and Dire Straits were happy to sign on to help the talented Mr. Katche record It's About Time. Among them, guitarists Daniel Lanois, keyboardist Simon Clark, and sax legend Branford Marsalis join Katche to create some thrilling jazz- and funk-influenced rock cuts. Warm and soulful, Katche's tunes reflect the influence of Nothing Like the Sun-era Sting, perhaps more than any of the other artists that the drummer previously supported."

Track List
01. Cry Of Passion
02. Change
03. Warm Doorway
04. Who I Am
05. Go Getter
06. Lost in You
07. Silence
08. My Inner Heart
09. No Country
10. She Is
11. 25th of July
12. Tell Me Why

musicians
Manu Katche - drums, percussion, vocals, background vocals
Branford Marsalis - saxophone
Sting - vocals
Peter Gabriel - vocals, handclapping
Dominic Miller - acoustic and electric guitar
Pino Palladino - bass, handclapping, background vocals
Simon Clark - keyboards, Hammond C3
Richard Galliano - accordeon
David Sancious - keyboards
Daniel Lanois - guitar
John Paul Jones - bass
David Rhodes - guitar, background vocals
Maz Roberts - vocals, handclapping
Philip Todd - horn
Roger Bolton - percussion, keyboards, sampled horns
Tom Robinson - background vocals
Siobhan Maher - background vocals

Produced by Manu Katche

Exact Audio Copy V0.99 prebeta 3 from 28. July 2007

EAC extraction logfile from 28. December 2007, 14:26

Manu Katche / It's About Time

Used drive : PIONEER DVD-RW DVR-106D Adapter: 3 ID: 1

Read mode : Secure
Utilize accurate stream : Yes
Defeat audio cache : Yes
Make use of C2 pointers : No

Read offset correction

: 48
Overread into Lead-In and Lead-Out : No
Fill up missing offset samples with silence : Yes
Delete leading and trailing silent blocks : No
Null samples used in CRC calculations : Yes
Used interface
: Installed external ASPI interface

Used output format : Internal WAV Routines
Sample format : 44.100 Hz; 16 Bit; Stereo

TOC of the extracted CD Track | Start | Length | Start sector | End sector
--1 | 0:00.33 | 5:01.70 | 33 | 22677 2 | 5:02.28 | 4:37.20 | 22678 | 43472 3 | 9:39.48 | 3:16.27 | 43473 | 58199 4 | 12:56.00 | 4:17.70 | 58200 | 77544 5 | 17:13.70 | 3:46.03 | 77545 | 94497 6 | 20:59.73 | 3:36.10 | 94498 | 110707 7 | 24:36.08 | 3:48.62 | 110708 | 127869 8 | 28:24.70 | 3:48.73 | 127870 | 145042 9 | 32:13.68 | 4:38.00 | 145043 | 165892
10 | 36:51.68 | 4:41.67 | 165893 | 187034
11 | 41:33.60 | 4:35.43 | 187035 | 207702
12 | 46:09.28 | 2:34.05 | 207703 | 219257

Range status and errors

Selected range Filename D:\My Lossless\Manu Katche - It's About Time\Manu Katche - It's About Time.wav Peak level 100.0 %
Range quality 100.0 %
Test CRC 094CF37A
Copy CRC 094CF37A
Copy OK

No errors occurred


AccurateRip summary

Track 1 accurately ripped (confidence 2) [61BE91DD]
Track 2 accurately ripped (confidence 2) [912BC216]
Track 3 accurately ripped (confidence 2) [E91E73F5]
Track 4 accurately ripped (confidence 2) [5B8B5AA5]
Track 5 accurately ripped (confidence 2) [16519DE2]
Track 6 accurately ripped (confidence 2) [158DF650]
Track 7 accurately ripped (confidence 2) [33311DB8]
Track 8 accurately ripped (confidence 2) [5950D083]
Track 9 accurately ripped (confidence 2) [04BAAC8B]
Track 10 accurately ripped (confidence 2) [6530AFF7]
Track 11 accurately ripped (confidence 2) [518605F0]
Track 12 accurately ripped (confidence 2) [59E84DF9]

All tracks accurately ripped

End of status report

Analyzed: Manu Katche / It's About Time

DR Peak RMS Duration Track

DR14 0.00 dB -15.84 dB 5:02 01-Cry Of Passion
DR15 0.00 dB -16.40 dB 4:37 02-Change
DR14 -0.40 dB -16.93 dB 3:16 03-Warm Doorway
DR13 0.00 dB -15.67 dB 4:18 04-Who I Am
DR14 0.00 dB -16.32 dB 3:46 05-Go Getter
DR11 -7.68 dB -21.35 dB 3:36 06-Lost In You
DR11 -0.76 dB -15.07 dB 3:49 07-Silence
DR14 0.00 dB -16.55 dB 3:49 08-My Inner Heart
DR14 -1.08 dB -17.96 dB 4:38 09-No Country
DR12 -1.31 dB -17.16 dB 4:42 10-She Is
DR13 0.00 dB -14.96 dB 4:36 11-25th Of July
DR12 -1.41 dB -17.17 dB 2:34 12-Tell Me Why

Number of tracks: 12
Official DR value: DR13

Samplerate: 44100 Hz
Channels: 2
Bits per sample: 16
Bitrate: 783 kbps
Codec: FLAC

Manu Katche - It's About Time (1991) {Sacre}

Manu Katche - It's About Time (1991) {Sacre}

Manu Katche - It's About Time (1991) {Sacre}

Rip by golf789


DOWNLOAD LINKS
Buy Premium From My Links To Get Resumable Support & Max Speed & To Support Me


Links are Interchangeable - No Password - Single Extraction
Direct Download

Tags: Katche

Manu Katche - It's About Time (1991) {Sacre} Download via Hotfile Rapidshare Fileserve Megaupload & FileSonic, Manu Katche - It's About Time (1991) {Sacre} free torrent downloads included crack, serial, keygen.Manu Katche - It's About Time (1991) {Sacre} Fast Download via Rapidshare Hotfile Fileserve Filesonic Megaupload, Manu Katche - It's About Time (1991) {Sacre} Torrents and Emule Download or anything related.
Leave a Comment
Your Name:
E-Mail:
Add Comments:

Enter Code: