Dan Siegel - Departure (2006) {Native Language}

Download Now

Dan Siegel - Departure (2006) {Native Language}

Dan Siegel - Departure (2006) {Native Language}
EAC 0.95b2 | FLAC Image level 8 | Cue+Log | Full Scans 300dpi | 312MB + 5% Recovery
Genre: Smooth Jazz, Fusion

"A culmination of influences from an illustrious career spanning 25-plus years, Departure is the latest studio recording from pianist Dan Siegel. He brilliantly blends his melodic and rhythmic pop sensibilities with his traditional jazz roots and offers up an amazing acoustic vision of original compositions. This CD is graceful, noble, and reflective, since it transcends categorization as it speaks to earlier times of adult instrumental acoustic music with classic themes that were influenced by the song, its melodies, and its virtuosic musicians."

Track List
01. Across The Sea 4:32
02. Street Talk 3:45
03. Mosaic 4:37
04. Friends Forever 4:12
05. Departure 5:16
06. From Here On Out 4:02
07. A World Away 4:18
08. Soliloquy 5:08
09. Shades Of Gray 4:35
10. Castles In The Sand 4:24
11. Alone 4:09

musicians
Dan Siegel - piano, vibraphone, melodica, organ, Rhodes
Brian Bromberg - acoustic bass
Vinnie Colaiuta - drums
Lenny Castro - percussion
Bob Sheppard - saxophones
Norman Brown - electric guitar on 2
Grant Geissman - electric guitar on 9
Bill Cantos - vocals on 1
Emerald Valley String Ensemble

Produced by Brian Bromberg

EAC extraction logfile from 8. August 2007, 19:32 for CD
Dan Siegel / Departure

Used drive : _NEC DVD_RW ND-4571A Adapter: 1 ID: 1
Read mode : Secure with NO C2, accurate stream, disable cache
Read offset correction : 48
Overread into Lead-In and Lead-Out : No

Used output format : Internal WAV Routines 44.100 Hz; 16 Bit; Stereo

Other options :
Fill up missing offset samples with silence : Yes
Delete leading and trailing silent blocks : No
Installed external ASPI interface

Range status and errors
Selected range
Filename D:\CDImages_LossLess\Dan Siegel\2006 Departure\CDImage.wav Peak level 99.8 %
Range quality 100.0 %
CRC 3DBA3CC5
Copy OK

No errors occured

End of status report

Analyzed: Dan Siegel / Departure

DR Peak RMS Duration Track

DR8 -0.01 dB -11.10 dB 4:33 01-Across The Sea
DR7 -0.01 dB -9.92 dB 3:45 02-Street Talk
DR8 -0.01 dB -10.27 dB 4:38 03-Mosaic
DR9 -0.01 dB -10.88 dB 4:12 04-Friends Forever
DR10 -0.01 dB -12.08 dB 5:17 05-Departure
DR8 -0.01 dB -11.86 dB 4:02 06-From Here On Out
DR9 -0.01 dB -12.13 dB 4:18 07-A World Away
DR9 -0.01 dB -12.37 dB 5:08 08-Soliloquy
DR9 -0.01 dB -11.00 dB 4:36 09-Shades Of Gray
DR9 -0.01 dB -11.26 dB 4:24 10-Castles In The Sand
DR9 -0.01 dB -12.88 dB 4:09 11-Alone

Number of tracks: 11
Official DR value: DR9

Samplerate: 44100 Hz
Channels: 2
Bits per sample: 16
Bitrate: 858 kbps
Codec: FLAC

Dan Siegel - Departure (2006) {Native Language}

Dan Siegel - Departure (2006) {Native Language}

Dan Siegel - Departure (2006) {Native Language}

Rip by blackhorse


DOWNLOAD LINKS
Buy Premium From My Links To Get Resumable Support & Max Speed & To Support Me


Links are Interchangeable - No Password - Single Extraction
Direct Download

Tags: Siegel, Departure, Native, Language

Dan Siegel - Departure (2006) {Native Language} Download via Hotfile Rapidshare Fileserve Megaupload & FileSonic, Dan Siegel - Departure (2006) {Native Language} free torrent downloads included crack, serial, keygen.Dan Siegel - Departure (2006) {Native Language} Fast Download via Rapidshare Hotfile Fileserve Filesonic Megaupload, Dan Siegel - Departure (2006) {Native Language} Torrents and Emule Download or anything related.
Leave a Comment
Your Name:
E-Mail:
Add Comments:

Enter Code: