Elaine Paige - Cinema (1984)

Download Now

Elaine Paige - Cinema (1984)

Elaine Paige - Cinema (1984)
EAC | FLAC | Image (Cue&Log) ~ 300 Mb (incl 5%) | Mp3 (CBR320) ~ 132 Mb (incl 5%) | Scans included
Genre: Vocal Pop, Soundtracks, Musical | Label: WEA | # 2292-40511-2 | Time: 00:44:16

"Cinema is the fourth solo album by Elaine Paige. The album was released in 1984 on Warner Music, peaking at #12 in the UK album charts. This album has been re-issued on CD. It was the second of Paige's recordings to be produced by Tony Visconti. To follow the theme of Stages, Paige chose tracks that had been previously recorded for soundtracks. Like Stages, the recording was primarily conducted at Visconti's Good Earth Studios, other than for "Sometimes" (Theme from Champions) which had been previously recorded at CTS Studios, London featuring the New World Philharmonia."

"Following her hugely successful collection of theatrical songs, Britain's best theatrical singer looked to the cinema to provide songs for the next album. Elaine's own acting career did not encompass films so she simply chose songs that she wanted to sing and she picked some good ones.

Here you will find Elaine's excellent covers of Windmills of your mind (from Thomas Crown affair), Out here on my own (from Fame), The prisoner (from Eyes of Laura Mars), Sometimes (from Champions), Do you know where you are going to (from Mahogany), Up where we belong (from An officer and a gentleman), Unchained melody (from Unchained), Bright eyes (from Watership down), Alfie (from Alfie), Missing (from Missing), The way we were (from The way we were) and The rose (from The rose).

Elaine is in great voice throughout so your favorites will likely depend on which songs you like best to begin with. In my case, these are Sometimes, Bright eyes, Windmills of your mind and The way we were but most of the others are not far behind.

If you enjoy Elaine's music, you will surely love this album.

Review by Peter Durward Harris, Amazon.co.uk
"


Elaine Paige at Allmusic
Elaine Paige Website
Elaine Paige at Wiki

Tracklist:

01. The Windmills of Your Mind (03:17)
02. Out Here on My Own (03:50)
03. The Prisoner (04:33)
04. Sometimes (02:38)
05. Theme from Mahogany (03:41)
06. Up Where We Belong (04:33)
07. Unchained Melody (03:44)
08. Bright Eyes (03:28)
09. Alfie (02:51)
10. Missing (03:49)
11. The Way We Were (04:03)
12. The Rose (03:43)


Exact Audio Copy V1.0 beta 3 from 29. August 2011

EAC extraction logfile from 10. April 2015, 11:43

Elaine Paige / Cinema

Used drive : HL-DT-STDVDRAM GH22NS50 Adapter: 3 ID: 0

Read mode : Secure
Utilize accurate stream : Yes
Defeat audio cache : Yes
Make use of C2 pointers : No

Read offset correction

: 667
Overread into Lead-In and Lead-Out : No
Fill up missing offset samples with silence : Yes
Delete leading and trailing silent blocks : No
Null samples used in CRC calculations : Yes
Used interface
: Native Win32 interface for Win NT & 2000

Used output format : User Defined Encoder
Selected bitrate : 192 kBit/s
Quality : High
Add ID3 tag : No
Command line compressor : C:\Program Files\Exact Audio Copy\FLAC\FLAC.EXE
Additional command line options : -V -8 -T "Date=%year%" -T "Genre=%genre%" %source%

TOC of the extracted CD Track | Start | Length | Start sector | End sector
--1 | 0:00.00 | 3:17.15 | 0 | 14789 2 | 3:17.15 | 3:50.70 | 14790 | 32109 3 | 7:08.10 | 4:33.55 | 32110 | 52639 4 | 11:41.65 | 2:38.25 | 52640 | 64514 5 | 14:20.15 | 3:41.27 | 64515 | 81116 6 | 18:01.42 | 4:33.08 | 81117 | 101599 7 | 22:34.50 | 3:44.47 | 101600 | 118446 8 | 26:19.22 | 3:28.55 | 118447 | 134101 9 | 29:48.02 | 2:51.70 | 134102 | 146996
10 | 32:39.72 | 3:49.68 | 146997 | 164239
11 | 36:29.65 | 4:03.05 | 164240 | 182469
12 | 40:32.70 | 3:43.37 | 182470 | 199231

Range status and errors

Selected range Filename D:\Uploads\Elaine Paige\Elaine Paige - 1984 Cinema\Elaine Paige - Cinema.wav Peak level 70.7 %
Extraction speed 1.6 X
Range quality 100.0 %
Test CRC B697A87A
Copy CRC B697A87A
Copy OK

No errors occurred

End of status report

==== Log checksum 42E2B10C60B598F981809ED9889D845902098F50A4D69EE9CF817F6E194012FA ====

foobar2000 1.3.8 / Dynamic Range Meter 1.1.1
log date: 2015-12-11 15:28:19

Analyzed: Elaine Paige / Cinema

DR Peak RMS Duration Track

DR15 -3.34 dB -23.20 dB 3:17 01-The Windmills of Your Mind
DR12 -3.48 dB -19.48 dB 3:51 02-Out Here on My Own
DR11 -3.34 dB -17.06 dB 4:34 03-The Prisoner
DR12 -5.41 dB -20.97 dB 2:38 04-Sometimes
DR13 -3.00 dB -18.97 dB 3:41 05-Theme from Mahogany
DR12 -3.00 dB -18.63 dB 4:33 06-Up Where We Belong
DR10 -8.23 dB -23.67 dB 3:45 07-Unchained Melody
DR12 -4.72 dB -21.08 dB 3:29 08-Bright Eyes
DR12 -5.57 dB -21.35 dB 2:52 09-Alfie
DR11 -5.42 dB -21.93 dB 3:50 10-Missing
DR13 -5.53 dB -21.84 dB 4:03 11-The Way We Were
DR13 -3.96 dB -22.81 dB 3:43 12-The Rose

Number of tracks: 12
Official DR value: DR12

Samplerate: 44100 Hz
Channels: 2
Bits per sample: 16
Bitrate: 824 kbps
Codec: FLAC

Elaine Paige - Cinema (1984)

Elaine Paige - Cinema (1984)

All thanks to original releaser - Serge_SA
Password: designol

DOWNLOAD LINKS:


No Password
Direct Download

Tags: Elaine, Cinema

Elaine Paige - Cinema (1984) Download via Hotfile Rapidshare Fileserve Megaupload & FileSonic, Elaine Paige - Cinema (1984) free torrent downloads included crack, serial, keygen.Elaine Paige - Cinema (1984) Fast Download via Rapidshare Hotfile Fileserve Filesonic Megaupload, Elaine Paige - Cinema (1984) Torrents and Emule Download or anything related.
Leave a Comment
Your Name:
E-Mail:
Add Comments:

Enter Code: