Barbra Streisand - Barbra Streisand's Greatest Hits Volume 2 (1978) [1984, Japan 35DP 161]

Download Now

Barbra Streisand - Barbra Streisand's Greatest Hits Volume 2 (1978) [1984, Japan 35DP 161]

Barbra Streisand - Barbra Streisand's Greatest Hits Volume 2 (1978) [1984, Japan 35DP 161]
Pop/Rock, Soft Rock, Vocal, Ballad | EAC Rip | FLAC, Img+CUE + LOG + Full Scans-600dpi (PNG) | 37:20 Min | 510,41 Mb
Label: CBS / Sony Inc. (Tokyo Japan) | Released: 1984, July, 21

"
Greatest Hits Vol. 2 is the second greatest hits album and fourth U.S. number-one album by Barbra Streisand. Released in 1978, it included Streisand's greatest hits from the previous eight years with one new track, "You Don't Bring Me Flowers," a duet with Neil Diamond which never appeared on a previous Streisand album. Greatest Hits Volume 2 was also the only Streisand album where the song "Prisoner" appeared. It originally appeared on the now out-of-print soundtrack album to The Eyes of Laura Mars.
"

Barbra Streisand - Barbra Streisand's Greatest Hits Volume 2 (1978) [1984, Japan 35DP 161]

Barbra Streisand - Barbra Streisand's Greatest Hits Volume 2 (1978) [1984, Japan 35DP 161]


Produced by: Barbra Streisand, Phil Ramone, Gary Klein, Charlie Calello, Marty Paich, Bob Gaudio, Tommy LiPuma, and Richard Perry
Artwork [Design]: by Nancy Donald, Tony Lane
Cover Photo: Francesco Scavullo

Barbra Streisand - Barbra Streisand's Greatest Hits Volume 2 (1978) [1984, Japan 35DP 161]


Footnotes:

* All tracks previously released, 1970-78, the most recent being track 5, arranged by Alan Lindgren, released as a single October 17, 1978.
* Tracks 1, 5, and 6 were Barbra's first three #1 hit singles.
* Track 2 makes its first and only Streisand album appearance following previous July 1978 single and Eyes Of Laura Mars soundtrack releases.
* 4th Streisand album to reach #1, December 1978.
* Digitally restored/remastered CD released.
* BB: 12-2-78 / 86 / #1(3) || G, 11/16/78; P, 11/16/78; 5P, 10/28/94

Release of the album: 1978, November, 15 [LP EMI Columbia, Cat.# FC 35679, USA]
Release of this CD: 1984, July, 21 [CD CBS / Sony Inc. (Tokyo Japan), Cat.# 35DP 161 / No Barcode]
© 1978, ℗ 1972, 1974, 1976, 1977, 1978 CBS Inc.

Tracklist:

01. Evergreen (Love Theme from "A Star Is Born") /1976/ (03:07)
(B. Streisand / P. Williams)
02. Prisoner (Love Theme from "Eyes of Laura Mars") /1978/ (03:56)
(K. Lawrence / J. Desautels)
03. My Heart Belongs To Me /1977/ (03:23)
(A. Gordon)
04. Songbird /1978/ (03:47)
(D. Wolfert / S. Nelson)
05. You Don"t Bring Me Flowers (Duet with Neil Diamond) /1978/ (03:29)
(M. Bergman / A. Bergman / N. Diamond)
06. The Way We Were /1974/ (03:32)
(M. Bergman / A. Bergman / M. Hamlisch)
07. Sweet Inspiration / Where You Lead /1972/ (06:26)
("Sweet..." - D. Penn / S. Oldham; "Where..." - "C. King / T. Stern)
08. All In Love Is Fair /1974/ (03:52)
([i]S. Wonder)[/i]
09. Superman /1977/ (02:48)
(R. Snyder)
10. Stoney End /1971/ (03:00)
(L. Nyro)

Exact Audio Copy V1.0 beta 3 from 29. August 2011

EAC extraction logfile from 13. December 2015, 12:43

Barbra Streisand / Greatest Hits Vol. 2

Used drive : PIONEER BD-RW BDR-208D Adapter: 1 ID: 0

Read mode : Secure
Utilize accurate stream : Yes
Defeat audio cache : Yes
Make use of C2 pointers : No

Read offset correction

: 667
Overread into Lead-In and Lead-Out : No
Fill up missing offset samples with silence : Yes
Delete leading and trailing silent blocks : No
Null samples used in CRC calculations : Yes
Used interface
: Native Win32 interface for Win NT & 2000

Used output format : Internal WAV Routines
Sample format : 44.100 Hz; 16 Bit; Stereo

TOC of the extracted CD Track | Start | Length | Start sector | End sector
--1 | 0:00.00 | 3:07.25 | 0 | 14049 2 | 3:07.25 | 3:55.50 | 14050 | 31724 3 | 7:03.00 | 3:23.07 | 31725 | 46956 4 | 10:26.07 | 3:46.43 | 46957 | 63949 5 | 14:12.50 | 3:29.37 | 63950 | 79661 6 | 17:42.12 | 3:31.63 | 79662 | 95549 7 | 21:14.00 | 6:26.12 | 95550 | 124511 8 | 27:40.12 | 3:51.63 | 124512 | 141899 9 | 31:32.00 | 2:48.25 | 141900 | 154524
10 | 34:20.25 | 3:00.15 | 154525 | 168039

Range status and errors

Selected range Filename D:\BlondStyle\Barbra Streisand - Greatest Hits Vol. 2.wav Peak level 100.0 %
Extraction speed 6.8 X
Range quality 100.0 %
Test CRC 97BA088C
Copy CRC 97BA088C
Copy OK

No errors occurred


AccurateRip summary

Track 1 accurately ripped (confidence 13) [DCE471C9] (AR v2)
Track 2 accurately ripped (confidence 13) [D31C5B21] (AR v2)
Track 3 accurately ripped (confidence 13) [F4B091B7] (AR v2)
Track 4 accurately ripped (confidence 14) 511B809 (AR v2)
Track 5 accurately ripped (confidence 14) [44B214D1] (AR v2)
Track 6 accurately ripped (confidence 13) [A168187A] (AR v2)
Track 7 accurately ripped (confidence 14) [028C054B] (AR v2)
Track 8 accurately ripped (confidence 14) [7DC4CAD4] (AR v2)
Track 9 accurately ripped (confidence 14) [D9ADA68B] (AR v2)
Track 10 accurately ripped (confidence 14) [4F5BFD9C] (AR v2)

All tracks accurately ripped

End of status report

- CUETools DB Plugin V2.1.3

[CTDB TOCID: kQo3LTrgrdwldbcBtoyJVSW_S_M-] found, Submit result: kQo3LTrgrdwldbcBtoyJVSW_S_M- has been confirmed
[deea044b] (58/61) Accurately ripped
[1c2e7910] (01/61) No match
[65c445d3] (01/61) No match
[49d9979a] (01/61) No match

==== Log checksum ACDC031FDBE3A74033A77F66769EFB73A59CBFDA515D8220AD0ADCC79726EAF5 ====

foobar2000 1.3.7 / Dynamic Range Meter 1.1.1
log date: 2015-12-13 12:58:30

Analyzed: Barbra Streisand / Greatest Hits Vol. 2

DR Peak RMS Duration Track

DR11 -6.70 dB -22.75 dB 3:07 01-Love Theme From ''A Star Is Born'' (Evergreen)
DR14 0.00 dB -19.25 dB 3:56 02-Love Theme From ''Eyes Of Laura Mars'' (Prisoner)
DR13 -2.97 dB -21.41 dB 3:23 03-My Heart Belongs To Me
DR15 -2.11 dB -21.23 dB 3:47 04-Songbird
DR13 -4.77 dB -23.29 dB 3:29 05-You Don't Bring Me Flowers (duet with Neil Diamond)
DR13 -3.52 dB -22.16 dB 3:32 06-The Way We Were
DR14 -0.45 dB -18.40 dB 6:26 07-Sweet Inspiration / Where You Lead
DR10 -4.61 dB -21.29 dB 3:52 08-All In Love Is Fair
DR13 -1.06 dB -20.00 dB 2:48 09-Superman
DR14 -0.68 dB -17.90 dB 3:00 10-Stoney End

Number of tracks: 10
Official DR value: DR13

Samplerate: 44100 Hz
Channels: 2
Bits per sample: 16
Bitrate: 799 kbps
Codec: FLAC



password: BlondStyle

DOWNLOAD LINKS
Buy Premium From My Links To Get Resumable Support & Max Speed & To Support Me


Links are Interchangeable - No Password - Single Extraction
Direct Download

Tags: Barbra, Streisand, Barbra, Streisand, Greatest

Barbra Streisand - Barbra Streisand's Greatest Hits Volume 2 (1978) [1984, Japan 35DP 161] Download via Hotfile Rapidshare Fileserve Megaupload & FileSonic, Barbra Streisand - Barbra Streisand's Greatest Hits Volume 2 (1978) [1984, Japan 35DP 161] free torrent downloads included crack, serial, keygen.Barbra Streisand - Barbra Streisand's Greatest Hits Volume 2 (1978) [1984, Japan 35DP 161] Fast Download via Rapidshare Hotfile Fileserve Filesonic Megaupload, Barbra Streisand - Barbra Streisand's Greatest Hits Volume 2 (1978) [1984, Japan 35DP 161] Torrents and Emule Download or anything related.
Leave a Comment
Your Name:
E-Mail:
Add Comments:

Enter Code: