The Methadones - 21st Century Power Pop Riot (2006) RESTORED

Download Now


The Methadones - 21st Century Power Pop Riot (2006) RESTORED
The Methadones - 21st Century Power Pop Riot
FLAC+CUE+LOG | Complete Scanwork | 274 MB
2006 / Red Scare Industries' Release # CCCP 108-2

100% cover-tunes of obscure and one-hit wonder songs from the '70s and '80s Power Pop phenomenon... before the words «Power Pop» were hijacked by the swill merchants.
"

The Methadones - 21st Century Power Pop Riot (2006) RESTORED

One of those rare all-covers projects that actually works, the Methadones' 21st Century Power Pop Riot might well actually be the band's best album so far. That's no disrespect to leader Dan Schafer's earlier work, which has been uniformly fine pop-punk, but this set is the first album Schafer has been involved with since his glory days as Ben Weasel's right-hand man in Screeching Weasel (under the name Danny Vapid) that's been this much unabashed fun. It helps immensely that the song selection is spot-on throughout, highlighting forgotten gems and lesser-known cult classics instead of the usual suspects: when the Records' "Starry Eyes" and Scandal's "Goodbye to You" (featuring a kicky lead vocal by Annie Soviette of the Soviettes) are among the most instantly familiar tunes on the album, it's clear that true power pop fans were behind this record. Versions of Elvis Costello's "Welcome to the Working Week" and, even better, the 1979 Costello soundalike "Back of My Hand" by the Jags are instant highlights, with a rockabilly-tinged workout on Nick Lowe's "Heart of the City" and a dead-on resurrection of the Pointed Sticks' "Out of Luck" close behind.

~ Stewart Mason, all media guide
"

Tracklist:

01. I'm The Leader Of The Gang _ [originally by Gary Glitter]
02. Walking Out On Love _ [originally by The Beat]
03. Back Of My Hand _ [originally by The Jags]
04. Welcome To The Working Week _ [originally by Elvis Costello]
05. I'm The Man _ [originally by Joe Jackson]
06. Into You _ [originally by The Crash Street Kids]
07. Full Moon Turn My Head Around _ [originally by Off Broadway]
08. Goodbye To You _ [originally by Scandal]
09. Out Of Luck _ [originally by The Pointed Sticks]
10. Heart Of The City _ [originally by Nick Lowe]
11. Starry Eyes _ [originally by The Records]
12. He's A Whore _ [originally by Cheap Trick]
13. I'm The Leader Of The Gang (Reprise)

Exact Audio Copy V1.0 beta 1 from 15. November 2010

EAC extraction logfile from 2. December 2011, 1:05

The Methadones / 21st Century Power Pop Riot

Used drive : ASUS DRW-1814BL Adapter: 2 ID: 0

Read mode : Secure
Utilize accurate stream : Yes
Defeat audio cache : Yes
Make use of C2 pointers : No

Read offset correction

: 6
Overread into Lead-In and Lead-Out : No
Fill up missing offset samples with silence : Yes
Delete leading and trailing silent blocks : No
Null samples used in CRC calculations : Yes
Used interface
: Installed external ASPI interface

Used output format : Internal WAV Routines
Sample format : 44.100 Hz; 16 Bit; Stereo

TOC of the extracted CD Track | Start | Length | Start sector | End sector
--1 | 0:00.00 | 2:26.19 | 0 | 10968 2 | 2:26.19 | 1:45.51 | 10969 | 18894 3 | 4:11.70 | 3:11.39 | 18895 | 33258 4 | 7:23.34 | 1:14.41 | 33259 | 38849 5 | 8:38.00 | 3:33.15 | 38850 | 54839 6 | 12:11.15 | 4:06.55 | 54840 | 73344 7 | 16:17.70 | 2:33.36 | 73345 | 84855 8 | 18:51.31 | 3:45.08 | 84856 | 101738 9 | 22:36.39 | 2:37.69 | 101739 | 113582
10 | 25:14.33 | 2:14.43 | 113583 | 123675
11 | 27:29.01 | 4:34.18 | 123676 | 144243
12 | 32:03.19 | 2:52.38 | 144244 | 157181
13 | 34:55.57 | 1:04.02 | 157182 | 161983

Range status and errors

Selected range Filename C:\_www.AvaxHome.ru\The Methadones - 21th Century Power Pop Riot (2006)\The Methadones - 21st Century Power Pop Riot (CCCP 108-2).wav Peak level 100.0 %
Extraction speed 0.1 X
Range quality 100.0 %
Test CRC A613345E
Copy CRC A613345E
Copy OK

No errors occurred


AccurateRip summary

Track 1 accurately ripped (confidence 2) [2AA4F1BC]
Track 2 accurately ripped (confidence 3) [EDE2B005]
Track 3 accurately ripped (confidence 3) [96460060]
Track 4 accurately ripped (confidence 3) 472F3B0
Track 5 accurately ripped (confidence 3) [6D979FB2]
Track 6 accurately ripped (confidence 3) [A7E333C9]
Track 7 accurately ripped (confidence 3) [255A1B90]
Track 8 accurately ripped (confidence 3) [33F46310]
Track 9 accurately ripped (confidence 3) [15F1E4CD]
Track 10 accurately ripped (confidence 3) [2846D31B]
Track 11 accurately ripped (confidence 3) [4F93F254]
Track 12 accurately ripped (confidence 2) [462DABB9]
Track 13 accurately ripped (confidence 2) [CA07A194]

All tracks accurately ripped

End of status report

==== Log checksum B59BE8F5DD5B147B5138D5C62EDFFDD52A5B97942024E7A346BA83A95AC4FCE7 ====

Produced by Matt Allison and The Methadones
Recorded in February 2006 by Matt Allison and Neil Hennessy at Atlas Studios in Chicago, IL.

* Dan Schafer - lead & backing vocals, lead & rhythm guitar
* Mike Byrne - lead & rhythm guitar, backing vocals
* Pete Mittler - bass guitar
* Mike Soucy - drums and backing vocals

additional musicians:
- Annie Soviette: lead vocals on "8"
- Jenny Choi: keyboads on "8-9"
- Paddy Costello, Adam Fletcher, Alisha Broniec, Pat Buckley: additional back-ups on some tracks.

Release Date: June 6, 2006
Label: Red Scare Industries
Catalog No.: CCCP 108-2
DOWNLOAD LINKS
Buy Premium From My Links To Get Resumable Support & Max Speed & To Support Me


Links are Interchangeable - No Password - Single Extraction
Direct Download

Tags: Methadones, Century, RESTORED

The Methadones - 21st Century Power Pop Riot (2006) RESTORED Download via Hotfile Rapidshare Fileserve Megaupload & FileSonic, The Methadones - 21st Century Power Pop Riot (2006) RESTORED free torrent downloads included crack, serial, keygen.The Methadones - 21st Century Power Pop Riot (2006) RESTORED Fast Download via Rapidshare Hotfile Fileserve Filesonic Megaupload, The Methadones - 21st Century Power Pop Riot (2006) RESTORED Torrents and Emule Download or anything related.
Leave a Comment
Your Name:
E-Mail:
Add Comments:

Enter Code: