Johnny Bristol ‎- Bristol's Creme (1976) [2008 Japan Mini-CD]

Download Now

Johnny Bristol ‎- Bristol's Creme (1976) [2008 Japan Mini-CD]

Johnny Bristol ‎- Bristol's Creme (1976) [2008 Japan Mini-CD]
EAC Rip | FLAC (Tracks) +CUE, LOG | 279 MB | Covers Included
Soul | Label: P-Vine Records | Catalog Number:PCD 22297

"An excellent smooth soul groover from Johnny Bristol! The album has Johnny stepping into a more sophisticated groove than he used on his early 70s albums for MGM - mixing together styles that sound a lot like those used by artists like Leroy Hutson or Leon Ware at the time, a mix of well-produced backings with just the right touch of strings, keyboards, and tight rhythms. Johnny's voice has a bit rootsier quality than you might be used to for this sort of album - which makes for an even more unique sound, especially on the mellower cuts. Tracks include "Do It To My Mind", "Have Yourself A Good Time Thinkin' Bout The Good Times", "You Turned Me On To Love", "I Sho Like Groovin' With Ya", and "She Came Into My Life"."

Exact Audio Copy V1.0 beta 3 from 29. August 2011

EAC extraction logfile from 25. December 2015, 8:54

Johnny Bristol / Bristol's Cream

Used drive : GENERIC CDRCB05 Adapter: 4 ID: 0

Read mode : Secure
Utilize accurate stream : Yes
Defeat audio cache : Yes
Make use of C2 pointers : No

Read offset correction

: 102
Overread into Lead-In and Lead-Out : No
Fill up missing offset samples with silence : Yes
Delete leading and trailing silent blocks : No
Null samples used in CRC calculations : Yes
Used interface
: Native Win32 interface for Win NT & 2000
Gap handling
: Appended to previous track

Used output format : User Defined Encoder
Selected bitrate : 1024 kBit/s
Quality : High
Add ID3 tag : No
Command line compressor : C:\Program Files\FLAC\flac.exe
Additional command line options : -8 -V -T "ARTIST=%artist%" -T "TITLE=%title%" -T "ALBUM=%albumtitle%" -T "DATE=%year%" -T "TRACKNUMBER=%tracknr%" -T "GENRE=%genre%" -T "PERFORMER=%albuminterpret%" -T "COMPOSER=%composer%" %haslyrics%--tag-from-file=LYRICS="%lyricsfile%"%haslyrics% -T "ALBUMARTIST=%albumartist%" -T "DISCNUMBER=%cdnumber%" -T "TOTALDISCS=%totalcds%" -T "TOTALTRACKS=%numtracks%" -T "COMMENT=%comment%" %source% -o %dest%

TOC of the extracted CD Track | Start | Length | Start sector | End sector
--1 | 0:00.00 | 4:52.32 | 0 | 21931 2 | 4:52.32 | 3:49.00 | 21932 | 39106 3 | 8:41.32 | 4:00.05 | 39107 | 57111 4 | 12:41.37 | 4:50.63 | 57112 | 78924 5 | 17:32.25 | 5:11.40 | 78925 | 102289 6 | 22:43.65 | 3:09.45 | 102290 | 116509 7 | 25:53.35 | 4:22.05 | 116510 | 136164 8 | 30:15.40 | 4:10.50 | 136165 | 154964

Track 1 Filename F:\POSTS\Johnny Bristol ‎- Bristol's Creme (1976) [2008 Japan Mini-CD]\01 - Do It To My Mind.wav Pre-gap length 0:00:02.00 Peak level 82.8 %
Extraction speed 1.5 X
Track quality 100.0 %
Test CRC 85BFDBA9
Copy CRC 85BFDBA9
Accurately ripped (confidence 3) 67A104B (AR v1)
Copy OK

Track 2 Filename F:\POSTS\Johnny Bristol ‎- Bristol's Creme (1976) [2008 Japan Mini-CD]\02 - I Love Talkin' 'Bout Baby.wav Pre-gap length 0:00:01.50 Peak level 61.6 %
Extraction speed 1.6 X
Track quality 100.0 %
Test CRC B2646055
Copy CRC B2646055
Accurately ripped (confidence 3) [5824A269] (AR v1)
Copy OK

Track 3 Filename F:\POSTS\Johnny Bristol ‎- Bristol's Creme (1976) [2008 Japan Mini-CD]\03 - I Sho Like Groovin' With You.wav Pre-gap length 0:00:02.32 Peak level 83.3 %
Extraction speed 1.7 X
Track quality 100.0 %
Test CRC D0529CF0
Copy CRC D0529CF0
Accurately ripped (confidence 3) [C2E75D6B] (AR v1)
Copy OK

Track 4 Filename F:\POSTS\Johnny Bristol ‎- Bristol's Creme (1976) [2008 Japan Mini-CD]\04 - You Turn Me On To Love.wav Pre-gap length 0:00:00.47 Peak level 62.3 %
Extraction speed 1.7 X
Track quality 99.9 %
Test CRC D0A9F6B9
Copy CRC D0A9F6B9
Accurately ripped (confidence 3) [F54C6768] (AR v1)
Copy OK

Track 5 Filename F:\POSTS\Johnny Bristol ‎- Bristol's Creme (1976) [2008 Japan Mini-CD]\05 - She Came Into My Life.wav Pre-gap length 0:00:01.50 Peak level 75.5 %
Extraction speed 2.1 X
Track quality 100.0 %
Test CRC CC866FE7
Copy CRC CC866FE7
Accurately ripped (confidence 3) [F5DABC19] (AR v1)
Copy OK

Track 6 Filename F:\POSTS\Johnny Bristol ‎- Bristol's Creme (1976) [2008 Japan Mini-CD]\06 - Love To Have A Chance To Teaste The Wine.wav Pre-gap length 0:00:01.68 Peak level 65.4 %
Extraction speed 2.1 X
Track quality 100.0 %
Test CRC D9CF9B51
Copy CRC D9CF9B51
Accurately ripped (confidence 3) [599AEAE3] (AR v1)
Copy OK

Track 7 Filename F:\POSTS\Johnny Bristol ‎- Bristol's Creme (1976) [2008 Japan Mini-CD]\07 - Baby's So Much Fun To Dream About.wav Pre-gap length 0:00:01.70 Peak level 70.4 %
Extraction speed 2.3 X
Track quality 100.0 %
Test CRC E959240C
Copy CRC E959240C
Accurately ripped (confidence 3) [1837C6B0] (AR v1)
Copy OK

Track 8 Filename F:\POSTS\Johnny Bristol ‎- Bristol's Creme (1976) [2008 Japan Mini-CD]\08 - Have Yourself A Good TimeThinkin' 'Bout The Good Times.wav Pre-gap length 0:00:02.08 Peak level 66.8 %
Extraction speed 2.1 X
Track quality 99.9 %
Test CRC 7D83CDF2
Copy CRC 7D83CDF2
Accurately ripped (confidence 3) [6E8BB976] (AR v1)
Copy OK

All tracks accurately ripped

No errors occurred

End of status report

==== Log checksum D7B03CE73709B3565B522ECB4E38E6A3A4EF9751367AF39F16EE270BC1A3A3C3 ====

Tracklist:
01 Do It To My Mind 4:51
02 I Love Talkin' 'Bout Baby 3:46
03 I Sho Like Groovin' With Ya 3:59
04 You Turned Me On To Love 4:48
05 She Came Into My Life 5:10
06 Love To Have A Chance To Taste The Wine 3:06
07 Baby's So Much Fun To Dream About 4:19
08 Have Yourself A Good Time Thinkin' 'Bout The Good Times 4:09
DOWNLOAD LINKS:
Buy Premium To Support Me & Get Resumable Support & Max Speed


Links are Interchangeable - No Password - Single Extraction
Direct Download

Tags: Johnny, Bristol, Bristol

Johnny Bristol ‎- Bristol's Creme (1976) [2008 Japan Mini-CD] Download via Hotfile Rapidshare Fileserve Megaupload & FileSonic, Johnny Bristol ‎- Bristol's Creme (1976) [2008 Japan Mini-CD] free torrent downloads included crack, serial, keygen.Johnny Bristol ‎- Bristol's Creme (1976) [2008 Japan Mini-CD] Fast Download via Rapidshare Hotfile Fileserve Filesonic Megaupload, Johnny Bristol ‎- Bristol's Creme (1976) [2008 Japan Mini-CD] Torrents and Emule Download or anything related.
Leave a Comment
Your Name:
E-Mail:
Add Comments:

Enter Code: